&title=枯音染秽无凭裂章
&artist=Minase/Mask Zombie Man/Ludwig van Beethoven
&first=0.15
&des=CupLid
&lv_5=14
&des_5=CupLid
&inote_5=(121)
{16},,,,
,,,,
,,,,
,,,,
{16},,,,
,,,,
,,,,
,,,,
(110)
{16},,,,
(95)
{16},,,,
(90)
{16},,,,
(85)
{32}26,,,,
3,4,3,4,
2,5,1,6,
2,5,3,,
(180.5)
{16}6/2qq5[16:8],,,,
,,,,
7h[16:8],,,,
,,,,
{16}6>1[16:8],,,,
,,,,
8,,,,
7,,7,,
{16}2/6>3[16:2],,,,
1-5[16:2],,,,
8-4[16:2],,,,
3<6[16:2],,,,
{16}7>2[16:2],,,,
4-8[16:2],,,,
6h[16:4],,,,
1,,,,
{16}7-4[16:2]/8-4[16:2],,,,
8b/7b,,,,
2-5[16:2]/1-5[16:2],,,,
2b/1b,,,,
{16}7/8<5[16:2],,,,
1/8b>3[16:2],,,,
6/8b-4[16:2],,,,
8b/4,,,,
{16}1b/3,,2,,
6/8b,,7,,
4/2b,,3,,
{32}4,5,6,7,8,1,2,3,
{16}4/8b-4[16:2],,,,
3,,3,,
3/5,,3,,
7/3-8[16:2],,3,,
{16}6-4[16:2],,6,,
1-5[16:2],,1,,
8,,7,,
6/4,,3,,
{16}7/4,,7,,
7/5,,7,,
7/3,,7,,
1/7-1[16:2],,7,,
{16}2-5[16:2],,2,,
8-3[16:2],,8,,
4-8[16:2],,4,,
4/7h[16:4],,,,
{16}1b,,,,
2/6,,2,,
2/4,,2,,
8/2>5[16:2],,2,,
{16}7v4[16:2],,7,,
1<6[16:2],,1,,
5-1[16:2],,5,,
1,,,,
{16}2/8,,3,,
4/6,,5,4,
6,,3,4,
2,,6,5,
{16}8-3[16:2],,,,
8/2-5[16:2],,,,
2/6h[#0.6648197],,,,
,,,,
(180)
{16}4q6-8[4:13]*p2-8[4:13],,,,
,,,,
,,,,
,,,,
{16},,,,
,,,,
,,,,
,,,,
{16},,,,
,,,,
,,,,
,,,,
{16},,,,
,,,,
,,,,
E6,,E5,,
{16}E4h[16:8],,,,
,,,,
,,,,
B3,,E5,,
{16}B6h[16:8],,,,
,,,,
,,,,
E7,,C,,
{16}E3,,,,
E2,,E1,,
E8,,,,
E6,,E5,,
{16}E4h[16:2],,,,
,,,,
7/5,,6,,
4/2,,3,,
{16}6/4h[16:2],,5,,
2/6h[16:2],,3,,
7/4h[16:2],,5,,
2/6h[16:2],,4,,
{16}7h[16:2]/8h[16:3],,,,
6h[16:2]/5h[16:3],,,,
4h[16:2]/3h[16:3],,,,
2/1,,2/1,,
{16}3/8,,4/6,,
1/7-3[16:2],,,,
7/1<6[16:2],,,,
1/5-1[16:2],,,,
{16}5/2>5[16:2],,,,
2/8,,,,
7h[16:4]/8h[16:4],,,,
,,,,
{16}8/6,,7,,
1/5,,3,,
4q8[16:2]/2>5[16:2],,,,
,,,,
{16}1/3,,2,,
8,4,7,5,
6-8[8:1]*v4[8:1],,,,
,,,,
{16}2/1,,3,,
4/5,,6,,
8/7,,1,,
2/4-8[16:2],,5,,
{16}6-3-5[16:4],,6,,
1,,1,,
2b,,3,,
4/6,,6,,
{16}5/3,,3,,
4/6,,6,,
5/3,,2,,
6/4,,7,,
{16}5/3,,2,,
4/6,,7,,
1/3,,2,,
6/8,,7,,
{16}2,5,3,4,
1,6,2,5,
3,3,6,6,
4,4,7,7,
{32}5,6,7,8,1,2,3,4,
5,6,7,8,1,2,3,4,
{16}7h[16:12]/5h[16:8],,,,
,,,,
{16},,,,
,,,,
{12}6/4,6/4,6/4,
5/3,5/3,5/3,
{16},,,,
,,,,
E3,,,,
E7,,,,
{16}E2,,,,
E6,,,,
E1,,,,
E5,,,,
{16}C,,,,
,,,,
{32}D7,A6,D6,A5,D5,A4,D4,A3,
{16}1,,1,,
{16}1,,1,,
7,,7,,
8,,8,,
6,,6,,
{16}2,,2,,
5,,5,,
3h,,3h,,
3h,,3h,,
{16}3h,,,,
3h,,,,
4h,,,,
4h,,,,
{16}4h,,,,
6b/2b,,,,
{32}D3,A3,D4,A4,D5,A5,D6,A6,
{16}8,,8,,
{16}8,,8,,
2,,2,,
1,,1,,
3,,3,,
{16}7,,7,,
4,,4,,
6h,,6h,,
6h,,6h,,
{16}6h,,,,
6h,,,,
5h,,,,
5h,,,,
{16}5h,,,,
3b/7b,,,,
{32}D7,A6,D6,A5,E5,B4,C,B6,
E6,A5,D5,A4,D4,,,,
{16}1,,1,,
7,,7,,
2,,2,,
8,,8,,
{16}3,,3,,
1,,1,,
4h,,4h,,
4h,,4h,,
{16}4h,,,,
4h,,,,
5h,,,,
5h,,,,
{16}5h,,,,
6b/2b,,,,
{32}D3,A3,D4,A4,E5,B5,C,B3,
E4,A4,D5,A5,D6,,,,
{16}8,,8,,
2,,2,,
7,,7,,
1,,1,,
{16}6,,6,,
8,,8,,
A7,,B7,,
E7,,C,,
{16}E6,,,,
E1,,,,
E7,,,,
C,,,,
{16}E3,,,,
,,,,
,,,,
,,,,
{16},,,,
,,,,
,,,,
,,,,
{16},,,,
,,,,
,,,,
7?pp6[4##2]/2?qq3[4##2],,,,
{16},,,,
,,,,
,,,,
,,,,
{16},,,,
,,,,
,,,,
,,,,
{16},,,,
,,,,
,,,,
,,,,
{16},,,,
,,,,
,,,,
,,,,
{16},,,,
,,,,
,,,,
(190)
{16}4/5pp4[16:8],,,,
3,,,,
2,,,,
1pp5[16:8],,,,
{16}5,,,,
6,,,,
7-3-6[16:8],,,,
3,,,,
{16}1,,,,
2h[16:8],,,,
1,,,,
7,,,,
{16}1/6h[16:8],,,,
3,,,,
4,,,,
5/7h[16:8],,,,
{16}3,,,,
1,,,,
6/2h[16:8],,,,
4,,,,
{16}1,,,,
8/4qq5[16:8],,,,
7,,,,
7,,,,
{16}8qq4[16:8],,,,
4,,,,
3,,,,
2-6-3[16:8],,,,
{16}6,,,,
8,,,,
7qq3[16:8],,,,
1,,,,
{16}1,,,,
2h[16:8],,,,
4,,,,
6,,,,
{16}8/3h[16:8],,,,
8,,,,
6,,,,
5/7h[16:8],,,,
{16}3,,,,
1,,,,
3/6h[16:8],,,,
4,,,,
{16}5,,,,
7/8,,7,,
6/2,,2,,
4/3,,4,,
{16}5/1-5[16:2],,1,,
6,,6,,
7<4[16:2],,7,,
3,,3,,
{16}8/2-6[16:2],,2,,
7<4[16:2],,7,,
1-5[16:2],,1,,
6h[16:4],,,,
{16}4qq8[16:6],,4,,
6,,6,,
7qq3[16:6],,7,,
1,,1,,
{16}2>5[16:2],,2,,
1<6[16:2],,1,,
4-8[16:2],,4,,
5h[16:4],,,,
{16}1,,28,,
37,,4,5,
3,,6,5,
7,,3,4,
{16}2,,7,8,
6,,2,1,
3,,7,,
64,,3,,
{16}25,,1h[16:4],,
{24}3,4,5,6,
,,
{16}74,,8h[16:4],,
{24}6,5,4,3,
,,
{24}25,,,25,
36,47,58,,
,58,47,36,
2/5w1[16:2],,,,,,5b,,,,,,
{16}3x,,3,4,
3x,,3x,,
6,,6x,5,
6,,6x,,
{16}4h[8:3],,8x,,
7,,6x,,
5h[8:3],,4x,,
3x,,2x,,
{16}7x^5[8:1],,1x,,
1,,2x^5[8:1],,
8x,,8,,
7xv4[8:1],,1x,,
{16}1,,3x^8[8:1],,
2,,6x,,
5,,4x,,
2x,1,3x,1,
{16}2x,,2,8,
2x,,2x,,
6,,6x,4,
6,,6x,,
{16}45,,4x,,
74,,4x,,
14,,8x/E4,,
7x/E3,,6x/E2,,
{16}5x/E1,,,,
C,,,,
B6,,B5,,
B4,,B3,,
{16}7,8,1,2,
7,8,1,2,
6,5,4,3,
6,5,4,3,
{16}7qq4[4:3],,,,
,,,,
C,,,,
,,,,
{16}3qq8[4:3],,,,
,,,,
C,,,,
,,,,
{16}6pp5[4:3],,,,
,,,,
C,,,,
,,,,
{16}2pp1[4:3],,,,
,,,,
C,,,,
,,,,
{16}5v6-8[4:3],,,,
3,,,,
2/C,,,,
,,,,
{16}1v2-4[4:3],,,,
7,,,,
6/C,,,,
5,,,,
{16}5b-1b[4:5],,,,
,,,,
,,B6,,
B5,,B4,,
{16}B3,,,,
,,,,
,,,,
,,,,
(190)
{16}3b-5[8:1],,5-2[8:1],,
3,,6,,
7-1[8:1],,1-6[8:1],,
7,,2,,
{16}4-8[8:1],,,,
4/7-3[8:1],,,,
1w5[8:1]/7,,,,
1,,,,
{16}7-5[8:1],,5v8[8:1],,
7,,4,,
3-1[8:1],,1v4[8:1],,
3,,8,,
{16}6^1[8:1],,,,
6/3p7[8:1],,,,
5w1[8:1]/3,,,,
5,,,,
{16}2-5[8:1],,5-1[8:1],,
2,,6,,
7-4[8:1],,4-8[8:1],,
7,,3,,
{16}3-7[8:1],,,,
3/6-2[8:1],,,,
1w5[8:1]/6,,,,
1,,,,
{16}7-3[8:1]*-4[8:1],,,,
7b,,,,
2-6[8:1]*-5[8:1],,,,
2b,,,,
{16}2b/7b,,,,
2-5[8:1]/7-4[8:1],,18,,
2b/7b,,,,
1b/5b,,,,
{16}2,4,3,5,
4,6,5,7,
8,6,1,7,
2,8,3,1,
{16}4^1[8:1],,,,
4^7[8:1]/5,,,,
4w8[8:1]/3,,,,
4,,,,
{16}1,3,8,2,
7,1,6,8,
7,5,6,4,
5,3,4,2,
{16}8-4[8:1],,,,
8^3[8:1]*^5[8:1],,,,
8w4[8:1],,,,
8,,,,
{16}6v1[8:1],,,,
5/6b,,,,
3v8[8:1],,,,
3b/4,,,,
{16}7^4[8:1]/8q4[8:1],,,,
7b/8b,,,,
1p5[8:1]/2^5[8:1],,,,
1b/2b,,,,
{16}24,,2,,
14,,1,,
57,,7,,
58,,8,,
{16}2,4,2,4,
2,,8,,
7,5,7,5,
7,,1,,
{48}2bxp4p1[4:4]/8bxq6q1b[4:4],D8/D3,A3/A7,D4/D7,A4/A6,D5/D6,A5,,,,,,
{16},,,,
,,,,
,,,,
{16},,,,
,,,,
35,,,,
78,,,,
{16}1-5[8:1],,7,7,
1,,6,,
4-8[8:1],,5,5,
4,,6,,
{16}1-5[8:1],,6,,
8-4[8:1]/1,,,,
2>4b[8:1]/8<6b[8:1],,,,
2-6[8:1]/8,,,,
{16}1b/2b,,,,
8,,15,48,
37,,,,
1q5[8:1],,,,
{16}1/7p3[8:1],,,,
2-6[8:1]/7,,,,
2/8w4[8:1],,,,
8,,,,
{16}2-6[8:1],,8,8,
2,,7,,
4-8[8:1],,5,5,
4,,6,,
{16}2-6[8:1],,7,,
1-5[8:1]/2,,,,
4^1b[8:1]/1^6b[8:1],,,,
4/1,,,,
{16}1b>4[8:1],,7,7,
1,,6,,
4v7[8:1],,5,5,
4,,6,,
{16}1q5[8:1],,6,,
7-3[8:1]/1,,,,
2-5b[8:1]/7-1b[8:1],,,,
2/7,,,,
{16}8b-6-4[8:1],,2,2,
8,,3,,
5<8[8:1],,4,4,
5,,3,,
{16}8-4[8:1],,3,,
1-6[8:1]/8,,,,
7-4b[8:1]/1-4b[8:1],,,,
7/1,,,,
{16}5b/4b,,6,5,
6,,3,4,
3,,6,5,
7,,3,4,
{16}2,,6,5,
8,,3,4,
1,,7,5,
8,,2,4,
{16}1,8,2,7,
3,6,4,5,
4,5,3,6,
2,7,1,8,
{32}1x,2,3,4,5x,6,7,8,
1x,2,3,4,5x,6,7,8,
1x,2,3,4,5x,6,7,8,
1x,2,3,4,5x,6,7,8,
{16}1bx-4[8:2],,,,
4<7[8:2],,,,
8,,,,
8,,,,
{16}8<5[8:2],,,,
5-2[8:2],,,,
1,,,,
1,,,,
{16}3x>8[8:1],,,,
1,,7x-4[8:1],,
,,8,,
2x>5[8:1],,,,
{16}1,,6x-1[8:1],,
,,8,,
3x-8[8:1],,,,
3b/6b,,,,
{16}1b/5,,15,,
26,,26,,
3b/7,,37,,
48,,48,,
{16}1b/5,,26,,
3b/7,,48,,
1b/5,,26,,
3b/7,,48,,
{24}2,8,2,8,2,8,
{16}2,,37,,
{24}6,4,6,4,6,4,
{16}6,,35,,
(205)
{12}B4,B3,B2,
B6,B7,B8,
3b,4b,1b,
7b,5b,8b,
{16}62,
