&title=人生へたへたガール
&artist=藍月なくる
&first=0.04
&des_5=kano
&lv_5=14
&des=kano
&inote_5=(222){4},{16},,,,,,,,,,,,,,,,E5,
E6,E7,E8,{2}1xh[4:1]/2xh[4:1],
4xh[4:1]/7xh[4:1],{4}6h[8:1]/B2/E3,4x/E8/B8,
{1}B3/B2/E3/Cfh[2:3],
{8},,,,,,,,8x,
5,7,4,3/5,{16}2x,4,{8}2x,6,
1h[8:1],7,3h[8:1],7,{4}4-1[8:1],8h[8:1],
7-5[8:1],3h[8:1],{8}2,{16}6x,5,{8}6x,7/4,
8h[8:1],2,6h[8:1],2,{4}3>8[8:1],5h[8:1],
6<1[8:1],3h[8:1],3h[8:1],4/3h[8:1],
{8}5,4/6h[8:7],,E5,,B3,{4}B2,
{2}1h[2:1],{4}7-5[8:1],7bx/1-3[8:1],
1bx/4-8[8:1],4-6[8:1]*-2[8:1],{8},,1x/7bx,2x/6bx,
{4}1x/7bx,{16}E4,B4,E5,B5,{2}E6/B7h[2:3]/E7h[2:3]/A7h[2:3],
{4},,E6,E5,
{2}E4f,{4}5b/1h,6,
3b/7h,2,8-4[4:1],2b,
{8}2b,1x,2x,6,{4}7/4,5/2,
{8}7-4[8:1],7,1-5[8:1],1,{4}8xh[4:1],{24}E2,E3,E4,E5,,,1x,
2x,3x,4x,,,{4}8,7-5[8:1],B2/E2/B1,
8-6[8:1],{8}4,4,{4}3<6[8:1],C,
{8}2-5[8:1],8,{4}8,7<4[4:1],4>1[4:1],
1-5[4:1],5x<4b[8:5],{2}1xh[8:5],
{8},,,1x,8,{16}3x,7x,3x,7x,3x,7x,
{4}4-1[8:1]*-7[8:1],4b,{8}8-5[8:1],4,8,3,
2-4[8:1],1,2,8,7-5[8:1],4,7,3,
{4}2-4[8:1]*-6[8:1],{24}B2,C,{6}B6,{24}7x>1[8:1],,,5x,,,{8}7,4,
3>8[8:1],5,3,6,7-4[8:1],7,8-3[8:1],8,
{4}6-8[8:1]*-2[8:1],{24}B6,C,{6}B2,{24}1x,,,1x,,,{8}1x/5,1x,
{4}1x/7<5[8:1],{24}3x,2x,{6}1x,{24}7x,,,7x,,,{8}7x/3,7x,
{4}7x/1>3[8:1],{24}5x,6x,{6}7x,{24}4bx,,,5,,,{8}7,5,
2bx,8,6x,8x,1bx,2bx/8bx,{4}7-2[8:1]/3-6b[8:1],
{2}Cf/B7/B6/B2/B3,{4}Ch[2:7],E8,
E7,E6,{2}5xh[4:1],
{4}4,4,5-1[4:5],6,
6,7,{2}7,
,1b,
{4},,3,{8}3,5,
4h[8:1],6,5h[8:1],8,{4}7-5[8:1],8-4[8:1],
{2}1<6[8:1],{8}2,2h[4:1],,4,
4h[4:1],2,3,3,4/2,4/2,5/3,5/3,
{2}7b/4-8[8:1],{8}7,7-3[8:1],,8,
1-5b[8:1],4,{4}1,{8}7,7v4[8:1],,8,
1-5b[8:1],1x,{4}5x,{24}B5h[4:3],,,,,,,,,,,,{8}B1h[4:1],
,,,,7b/3b,,8b/1b,
{4}8b-4[8:1]/1b-5[8:1],Cf,3xh[4:1],4,
6xh[4:1],5,{8}4,5/3,6/2,7/1,
{4}8-6[8:1],{8}8,5,{4}4-1[8:1],{8}4,5,
{4}6-2[8:1],{8}6,5,4,3x,6/4x,7/5x,
{2}8b/1x,{4}2-5[8:1],2/6-1b[8:1],
6/3-8[8:1],3/7-4[8:1],{8}7,2,1-5[8:1],8,
{4}7/1,6,8/6,{8}6/4,6,
{4}6/5,4/5,{8}3/4,2,6/2x,5,
1/5x,8,{4}8x/4-7[8:1],4-2[8:1],4-8[8:1],
4<6[8:1]*>2[8:1],4w8b[8:1],,6bx/2bx,
{1}8-5[8:1]/4>1b[8:1],
{4},,,,,,2h[8:1]/5-8[8:1],
2h[8:1],
2h[8:1]/7x-4[8:1],2h[8:1],2h[8:1]/5x<8[8:1],2h[8:1],
2h[8:1]/1x-5[8:1],2h[8:1],3h[8:1]/6-1[8:1],3h[8:1],
3h[8:1]/8-4b[8:1],3h[8:1],{8},,,E6/B6,
{2}E4/B3,{4}7h[8:1]/4-1[8:1],7h[8:1],
7h[8:1]/2x-5[8:1],7h[8:1],7h[8:1]/4x>1[8:1],7h[8:1],
7h[8:1]/8x-4[8:1],7h[8:1],6h[8:1]/3-8[8:1],6h[8:1],
6h[8:1]/1-5b[8:1],6h[8:1],{8},,,B3/B2h[8:3],
{2}B6/B7h[4:1],{8}4/5,5/4,5-7[8:1]/4-2[8:1],5/4,
{2}5b-1[8:1]/4b-8[8:1],{4}7xh[4:1],2-4[8:1],
6-8[8:1],1>4[8:1],1<6[8:1],1-5[8:1],
A1f,{8}6/4,6/4,7/3,7/3,6/2,6/2,
{4}5-7[8:1]/1-5[8:1],1/5<3[4:1],{2}E7f/B7/B6,
{4},,3h[8:1]/5h[8:1],2h[8:1]/4h[8:1],
7h[8:1]/5h[8:1],8/1-5[8:1],{8}7,7,6,6,
5,5,4,4p1[8:3],,,,8x,
8x,8x,{16}8,1,8,1,{2}7b/2b,
B3h[4:3],E7h[4:3],
{4}E5,E4,{2}E3h[4:3],
E1h[4:3],B4h[2:1],
{4}E8,E7,E6h[2:1],2,
B3h[2:1],7,B7h[2:1],1,
B1h[2:1],5,E6h[2:1],2,
E5,E4,E3,E2,
{2}8-5[8:1]/1-4[8:1],{4}6/3,{8}7,5,
4,6/3-6[8:1],,7,,8,{4}8,
7/1,2/8-4[8:1],8-2[8:1],8-6[8:1],
8-3[8:1],8<5[8:1],8,{8}4,3,
{2}5b/2b,2h[4:1]/8h[4:1],
6h[4:1]/4h[4:1],{4}6-4[8:1]/1-4[8:1],6/1-6[8:1],
7<4[8:1],7x,2-5[8:1],1,
{8}7-4[8:1],8,{4}8,3-6[8:1]*-1[8:1],3-7[8:1],
,8,7-5[8:1],{16}7/B1,B2,{8}E3,
{4}8<5[8:1],{16}8/E2,E3,{8}A3,{4}1>4[8:1],{16}1/E8,E7,{8}A6,
{4}2-5[8:1],{16}8/2,7,{8}6,{2}1b,
7/5,3>6[2:1],
,8h[4:3],
{8},,,,6,4,5,3h[4:1],
,5,{4}5<8[8:1],{2}E3f/B2/B3,
{4}2/3,7/6,{8}1-5[8:1],2,{4}1/3,
{8}8-4[8:1],7,{4}8/6,{8}2>5[8:1],1,{4}2/8,
{8}7<4[8:1],8,{4}7/1,3-8[8:1],3/4,
4-8[8:1],4/3,{24}A1,E2,E3,A3,,,A7,E7,E6,A5,,,E2,
E3,E4,E5,,,{4}8b,{8}1-4[8:1],8,{4}1/7,
{8}8-5[8:1],1,{4}8/2,{8}3>8[8:1],4,{4}3/5,
{8}6<1[8:1],5,{4}6/4,{8}2-4[8:1],2x-6[8:1],,,1x-4[8:1],
1x-5b[8:1],,,3x,3x,2/6,6/2,
{2}5-2[8:1]/1-6[8:1],Ch[4:3],
{4},,6<3[2:1],3,
4,4,5V31[2:1],6h,
7h,8h,7s3[2:1],1,
1,1,2V47[2:1],7,
8,8,8h[4:1],{8}B2,B3,
{4}E4h[4:1],B7/E7,2xh[4:1],{8}E8,B7,
{4}B6h[4:1],B2f/E2,{8},7,7,7,
8,8,1,1,,B6/B3,,C,
{4}E5,1b,2-4[8:1]/1-4[8:1],2/1,
7-5[8:1]/8-4[8:1],8/7,{8}6x/2x,6x/2x,7/1,7/1,
{4}8b,{8}2/4,2,2/5,{16}3x,4,{8}3,8,
7/5,{16}6x,4,{8}6>3[8:1],1,2<7[8:1],2,5-8[8:1],5,
{4}1w5[8:1],C/B7/B3/B5,7x-4[8:1],7/1-5[8:1],
1-3[8:1]/8-6[8:1],8/1,{8}4x/5x,4x,3/6,6,
{4}7/2,1/5,2>6[4:1],6<2[4:1],
2>6[4:1],6<2b[4:1],{2}2-4-1-5[2:1],
{4},7h[4:1],8-4[8:1],8/1,
1-5[8:1],1/2,{16}4,3,2,1,8/4,7,6,5,
{4}4/8,6b/2b,{2}1s5<3b[4:13],
,E7,
,C,
,E5,
,2q5[8:5],
7,8V64[8:3],
3h,{4}2,2,
1,1,8b/1b,5b/3b,
4b/7-5[8:1]*-1[8:1],A7f,{12}2,4,3,5,2,1,
3-5[8:1],8,3,6,,,7,5x,6,4,7,1,
5-8[8:1]*-1[8:1],3,{6}5,{12},,3x,7x,2x,6,6,1x,
7,2,2,5,3,8,2,4,3,8,5,6,
{2}1-3[8:1]*-7[8:1],{12}4,5,3,4,{6}4,
{12}6,5,7x,6x,5x,8x,7x,6x,1,8,7,1x,
2x,3x,4x,5b/6b,,,8/4,7,6,5/1,4,3,
2/6,1,8,7/3,6,5,{4}4/8-4[8:1],8<5[8:1],
8,B3f/B4/E4,{12}1,6,2,8,4,6,
{4}1-4[8:1]*-5[8:1],{24}B1,C,{6}B5,{12}7,1,8,3,5,1,
{2}7<5[8:1]*-4[8:1],{12}2,8,2,6,1,6,
3,5,3,8b,,,3x,3x,5,3x,3x,7,
{4}1>4[8:1],{24}4x,5x,6x,7x,,,{12}8bx,2,8,2,7,1,
7,1,6,2,6,2,4,5,6,4,3,2,
8,7,6,1/5,,,3,4,3,5,3,4,
3,4,3,1,3,4,3,4,3,7,5,7,
5,7,1,8b,,,2-5[8:1],8,8,2,,,7-4[8:1],
1,1,7,,,3,2,1,5,4,3,
6,5,4,E8,E7,E6,{8}E5h[2:1],,,E1,
{16}E2,,,E3,,,{8}E4,{4}7-4[8:1],7/1-4[8:1],
1/8-5[8:1],8/2-5[8:1],{2}Cf/2<2-8-6-4-2b[2:7],
,,,,,,,8h[4:3]/Cf,
,2h[2:1]/B6f/E6/A6,
,E3h[1:1],
E7h[2:1],Cf,
{8},,6,7h[8:3]/5h[8:3],,,,,8,
8,,1,{2}2h[4:1]/8h[4:1],
{4}7/3,{8}1,2-5[8:1],,2/6,7,8-4[8:1],
,3,{4}2h[4:3],{16}E6,E5,E4,E3,E2,E1,E8,E7,
E6,D5,D4,D3,D2,D1,D8,D7,{2}D6f/A6/E6/Ch[2:1],
,,,1-5b[4:5],
{4},,,,,,7-5[8:1]/8-4[8:1],
7-3[8:1]/8-2[8:1],
8/7,1bx/5bx,{8}3/4,4/3,4/3,5/2,
{4}6b/1b,{24}1-5[8:1],8x,7x,3x,,,{4}1bx,{24}7-5[8:1]/8-4[8:1],1x,2x,6/3x,,,{4}7,
{8}6x/2bx,6b/2,5/1,5/1,7/3,7/3,
{16}8,7,6,5,1,2,3,4,{8}7-4[8:1],7,{16}4,3,2,1,
{8}8x>3[8:1],8,{16}4,5,6,7,{8}8x,8x,7/1,6/2,
{4}5b/3b,{8}4/6,6/4,{16}7/3,2,1,8,5,4,3,2,
1/5,8,7,6,5/1,2,3,4,{4}6h[4:1]/5-1[8:1],5-8[8:1],
{8},,1,1,2/8,4,6/1,7,
8/4,3,{4}5/2h[8:1],{16}8,3,8,3,7,2,7,2,
8,1,8,1,8,1,8,1,{2}7b<4[4:1],
1h[4:1],2>5b[4:1],
8h[4:1],{4}1,1,
8,8,{8}1,7,2,6,
{16}3,5,3,5,4,6,4,6,{8}5b-2[8:1],7,{4}5/8,
{8}7-4[8:1],2,{4}7/1,{8}1b-6[8:1],3,{4}1/4,
{8}3-8[8:1],4,{4}3/5,{24}E7,E6,{12}E5,{24},,8x,7x,{6}6x,
{24}E3,E4,{12}E5,{24},,1x,2x,{6}3x,2-5[8:1]/6-1[8:1],{12},{4}6/2,
7b/3b,{24}8b/1b,7/2,6/3,5/4,,,{8}7bx-4b[8:1],6,{4}7/8,
{8}1-6b[8:1],2,{4}1/4,{8}3bx-8b[8:1],2,{4}3/4,
{8}5-2b[8:1],6,{4}5/8,{8}7-4[8:1],7-3[8:1],,,1-5[8:1],
1-6b[8:1],,,3,2,1/8,7/2,
{4}6-1[8:1]/3-8[8:1],6b<4[2:1]/3b>5[2:1],,,,,3b-7[8:1],
{8}7b,8b,
{4}1b-6[8:1],{8}2b,3b,{4}4b-1[8:1],E7f,
{1}8b,
E
