&title=Recollect
&artist=鈴木このみ feat. Ashnikko
&first=0.02
&des=peterw_
&lv_6=13+
&des_6=peterw_
&inote_6=
(145){4},4bxz8b[2:3]/8bx-5[2:3],,,,,,,,5/1,
{2}6h[2:1]/2-5>4-7[2:1],
{4},5h[4:1],7h[4:1],1xp5b[8:1],
3bx,2h[8:1]/4h[8:1],2h[8:1]/4h[8:1],{8}4/3,{16}5,4,
,6,{8}5,{4}7h[8:1]/4h[8:1],7h[8:1]/4-1[32:3],{16}4/8h[8:1],,,6h[8:1],
,,{8}2/5,{4}3h[8:1]/4h[8:1],6h[8:1]/4h[8:1],{8}7/5,{16}4,5,
,3,{8}4,{4}5h[8:1]/2h[8:1],1h[8:1]/5-8[32:3],{16}5/2h[8:1],,,3h[8:1],
,,{8}4/7,{4}5/6<8-4[4:1],6/3h[8:1],{8}2h[8:1],{16}5,3h[8:1],
,6,{8}4h[8:1],{4}7-4-1[4:1],7/4,{8}3h[8:1],{16}8,2h[8:1],
,7,{8}1h[8:1],{4}6q4[4:1],{2}6/4q7[2:1]*p1[2:1],
{8},,,E2,E7/B7,B3/E4,E6,B1/B2,
B7,4h[4:1],{4}6-1[32:3],{8}2,3,{4}4h[8:1]/6<7-1[8:1],
{8}2,3,{4}4h[8:1]/6v1[32:3],{8}2,3,{4}8-5[32:3]/4-1[32:3],
4/8,{8}1-7[32:3],5,1>4[8:1],4-8[8:1],1,5,
{4}7V13[4:1],{8}7/3-7[8:1],4,{4}5-2[8:1],6h[4:1],
3x>6[32:7],4/3,{8}5x-7>1-3[4:1],4,{4}3/5,
{8}5x-3-1-6[4:1],6,{4}5/7,{8}5x<3[4:1],4,{4}5/3,
{8}4,5,4/6,5-1-5[4:1],4,3-7-3[4:1]*-7-3[4:1],,,,,4x/2x,
1x,6x/5x,8x,{4}3x-6[8:1]/2x-7[8:1],
E3/A2/A3,1h[4:1]/7x-2-5-8-4b[16:17],{8},1h[4:1],,,1h[4:1],
,,1h[4:1],{16},,,,4h[8:1]/2h[8:1],,,3h[8:1]/5h[8:1],
,,{8}6/4,{4}8h[4:1]/5-2-7-4-1[16:17],{8},8h[4:1],,,8h[4:1],
,,8h[4:1],,,{4}7h[16:3]/1h[16:3],
4h[8:1]/6h[8:1],E3f/B2/B3/A2/A3/8bxqq4[4:3],,,{1}4<3[16:11]*>5[16:11],
{8},3,2/4xh[8:1],1,7/5h[8:1],8,1/2h[8:1],4,
8/7h[4:1],5,{12}3xh,3xh,3xh,5xh/1xh,5xh/1xh,{3}5xh[3:1]/1h,
{4}8-4b[16:1],8b/2<3[32:7],2x/6x,{8}8-2>4-6[32:7],{16}1,1h[16:3],
,,,,{4}7w3[16:1],7,{16}2v5V38[32:9],4,2,4h[16:3],
{4}2,6-1[16:1],6/5h[4:1],{8}2-5[32:3],{16}4-8[32:3],4,
,,,,{8}6x-2-5-3[16:5],1xh[8:3],,,,2,
4/3qq4[4:1],5,{4}3/6pp5b[4:1],6b,2>1-3-5-7-1[4:3],
{8}5/2,7xh[8:3],,,,,{4}5-1[32:3],
{8}5/2>7[16:3],4h[4:1],,,8bx-3b[16:1],7,8/6-1[32:3]*-1[32:3],5-2[32:3],
{4}6x,{8}8xh[8:1],2<3[16:5],4/3,2x/5xh[4:1],,,{4}8-3b[16:1],
8b-5b[16:1]/2b-5b[16:1],2b/A8f,{8}5/6,{16}3,4,
{8}2-5<8-4[16:5],1/8,{4}2/6h[4:1],{48},,,,,,A7/D8/E8,A8,D1,A1,D2,A2,D3,A3,D4,A4,D5,A5,D6,A6,D7,A7,D8,A8,
{4}1x-6b[16:1],1b-3b[16:1]/4b-8b[16:1],4b/A1f,{8}5/7,6,
3/4-8[32:3],2-6>5-3b[32:7],4,2,,7x-3-6-4-8[32:13],{4}2xh[4:1],
,1-6b[16:1]*-5[16:1],1b,{8}4/7h[8:1],{16}3,3h[16:3],
{8}5-1[16:1],6,5/7-4[16:1],8,7/1,3V15[32:7]*-8-6[32:7],,3,
,,4/3-7[16:1],2h[16:1],3/5-1[16:1],6,5/1<8<7<6>5b[8:1],2,
{4}3x/1x,{8}4-7[16:1],3,2/4-1[16:1],3,6x/4x-7[16:1],5,
2x/4x-8b[16:1],3,{4}6bxh[8:13]/Cf/4bxz8-6-2-4-7-1-3-5[8:19],{8},,,,,,,,,,,,,,,,,,,7h[8:7],
,,{4}1b,2b,3b,
{8}4x-1[8:1]`8x-5b[8:1],4x/8x,,,{4}E5fh[4:1],{48}1b,2x,3x,4x,,,{16}7,5,
{8}7,7/8,1/2,{16}3,4,2xh,5xh,{8}2xh,7/1,6,
2/8,3h[8:1],{48}7x-3[16:1],2x/6x,1x/5x,8x/4x,{4},{16},,{24},{8}3/5,{16}2,4,
{8}1,1/7,5/6,8,5/4-8[16:1],3,4/6-1[16:1],5,
6/2>4q8b[16:5],3h[8:3],,,{4}B2fh[4:1],{48}8b,7x,6x,5x,,,{16}3,4,
{8}3,5/2,7/1,{16}6,5,7xh,4xh,{8}7xh,3/4,2,
6/5,8h[8:1],{48}4x-8[16:1],7x/3x,6x/2x,5x/1x,{4},{16},,{24},{8}7h[16:1]/1h[16:1],6h[16:1]/5h[16:1],
8h[16:1]/2h[16:1],4h[16:1]/3h[16:1],6/1-5b[8:1],8-6[8:1],1-3b[8:1],8-4[8:1],1x-5b[8:1],8x<5[8:1],
1x,8x,{4}4bx-7-2-5[2:3],{2}C,
C,{8}C,,,E7h[8:3]/A7h[8:3]/A6h[8:3],
,,{4}8q4q2-5[8:11],{2}C,
C,{8}C,,,E7h[2:1]/B6h[2:1],
,B4h[4:1]/B3h[4:1],,,,5h[8:1],4h[8:1],3h[8:1],
2h[8:1],1h[8:1],8<1[16:7],7,{2}6h[8:3],
{4}5qq7[4:3],8h[4:3],,,,{32}7x/2x,
6x/3x,{16}5xh[8:1]/4xh[8:1],{32},,,,6x/3x,7x/2x,{16}1x/8xh[16:3],{32},,,,1x,2x,3x,4x,5x,6x,7x,8x,
1x,2x,3x,4x,5x,6x,7x,8x,{16}1x/5,5h[16:3],,,3,3h[16:3],,,{4}8w4[8:1],
{16},,,,6bx/2bxv3-5b[2:1],,,B6h[16:5],,,{8}E7h[8:1],,B8/E1/B1,
{4}E1/B8/B1,{8}7-4[8:1],4-7V51[16:7],7,3,{4}2-4[32:3],
2,{16}4bx/1bx<4b[2:1],,,B3h[16:5],,,{8}E3h[8:1],,B8/E1/B1,
{4}B8/E1/B1,{8}2x-4[8:1],2x-8[8:1],2x-5[8:1],2x-7[8:1],{4}2x-6[8:1],
{16},,,,7bx/4bx-1>2-5b[2:1],,,E7h[16:5],,,{8}B6h[8:1],,B1/E1/B8,
{4}B1/E1/B8,{8}7-4[8:1],4-7V15[16:7],{4}7,{8}3-8[32:3],4,
{4}3,{16}5bx/8bx-2-4-6b[2:1],,,6h[8:1],,,{8}6h[8:1],,8,
{4}8h[8:1],{8}1x/7x,{16}3,4,{8}5x/2x-4v6[4:1],{16}1,8,{4}2x/7x,
5w1[16:1],A5f/D6/D5,{8}8xh[8:1],{16}3,3,{8}5h[8:1],1h[8:1],
7-4b[16:1],2h[8:1],{4}7b,{8}3h[8:1],{16}1,1,{8}4h[8:1],7h[8:1],
1-4b[32:3],5h[8:1],{4}1b,{8}7h[8:1],{16}5,5,{8}8h[8:1],2h[8:1],
4-8b[16:1],1h[8:1],{4}4b,{8}7bx/1bx-6b[16:1],8,3/1-5-1[32:7]*-5-1[32:7],2,
{4}1,E7f/B7/A7/A6/B6,{8}3/4,{16}2,2,{8}1/8-4b[32:3],6-1[16:1],
8,6,{16},,2,2,{8}3/1<6b[8:1],4qq5[32:7],1x,4,
,6,7/5xh[8:1],8,3/4h[8:1],1,8/7h[8:1],5,
1/2h[4:1],4,{12}6xh,6xh,6xh,8xh/4x-6<7-1V35[32:17],4xh/8xh,{3}4xh/8xh[3:1],
{12},,,{4}6h[4:15]/A5f,,,,,,,,4h[4:1],
{8},3h[4:1],,,{1}2h[1:1],
{4},2-4[8:1],{16}2/E5/B5,,,6h[16:3],,5,{8}5,
{4}7h[8:1]/4h[8:1],2/8-4[8:1],{16}8/B1/B2,,,3h[16:3],,4,{8}4,
5/2h[8:1],6,{4}1h[4:3]/7-2[8:1],7bx-4b[8:1],7-3-7[64:15]*-3-7[64:15],
,2b/A7f/E8/E7,5b/E2/E1/A1f,{32}3x,4x,5x,6x,7x,8x,1x,2x,
3x,4x,5x,6x,7x,8x,1x,2x,{4}3xv8b[16:1]/7x-4b[16:1],3b/7b/Cf,{8}1/5-8[32:3],{16}2,2,
{8}5,3,{4}4>1[16:1]/1-5[16:1],1b/4b,{16}8>4[8:1],5,8,5h[8:1],
{8}8,6,{4}7/8-4b[16:1],8b/2b,{8}5/3-8[32:3],{16}7v4[32:3],7,
,,,,{8}1x-3-8-4b[16:5],5bxh[8:3],,,,6,
3/7-5-8-4[16:5],8,{4}7/1-3b[16:1],1b,7<8V64V28[4:3],
{8}4/7,2xh[8:3],,,,,{4}4-8[32:3],
{8}4/7<2[16:3],5h[4:1],,,1bx-6b[16:1],2,1/3-8[32:3]*-8[32:3],4-7[32:3],
{4}3x,{8}1xh[8:1],7>6[16:5],4/5,7x/3xh[4:1],,,{4}1-6b[16:1],
1b-3b[16:1]/8b-4b[16:1],1b/A8f,{16}3,4/2h[16:1],,6,
{8}5/7-4>1-5[16:5],3h[8:3],{4}7,{48},,,,,,A2/E2/D2,A1,D1,A8,D8,A7,D7,A6,D6,A5,D5,A4,D4,A3,D3,A2,D2,A1,
{4}8xV24b[32:3],5b-1b[16:1]/8b-6b[16:1],5b/A8f,{8}2/8,4,
1/7V14[16:3],5-8b[32:3],7x,5<3[4:1],,7xh[16:3]/D6/A5f/D5,,6x,
5x/4x,3x,{4}1x/8x-4b[16:1]*-3[16:1],8b,{8}5/2h[8:1],{16}6,6h[16:3],
{8}5-1[16:1],4,5/3V57[32:5],2,3/1,8-4-2[32:7]*<5-1[32:7],,8b,
{16},,,,2,2,4,4,8,8,6,6,1,1,7,7,
{4}8p4[8:1],{8}8x/2x-5[8:1],1,2x/6xv1[8:1],7,6x/8x-3[8:1],7,
8/4-8b[8:1],5,{4}B7h[4:1]/E7h[4:1]/B6h[4:1],{64},,,,,,,,,,,,1x,2x/8x,3x/7x,4x/6x,{4}A5f/D5/D6,
{8}6-1[16:1],6,6/2-5[16:1],2,2/1>8[16:5],1,{4}4xh[4:1],
{48},,,,,,,,,,,,8b/4b-8[16:1],7x/3x,2x/6x,1x/5x,,,,,,,,,{4}2x-4v5-7b[8:5],{12}8bx,8bx,8bx,
8bx,8bx,8bx,8bxh[8:1],,,{4}1x-5<4[2:1],{8}1/5,7h[4:1],
,,8-4[16:1],1,8/2-5b[16:1],1,A2f/6-1-3[16:3],8-4b[16:1],
,8b,,6,5/7-4-1-6[16:5],4,3/7,2-5b[16:1],
,2b,{4}7xV53[8:1],{16}7/8-4b[16:1]*-3b[16:1],1,{8}2,{4}8b/Cf,
{8}3/5-3-1-7[4:1],4/6,{4}5/7z3[16:3]*-4[16:3],,1xw5b[16:1],
{1}1b,
E
