&title=Fragile
&artist=美郷あき
&first=0.000
&des=シスコン
&clock_count=4
&wholebpm=135.000
&lv_5=13+
&des_5=
&inote_5=(135)
{16},,,,
,,,,
,,,,
,,,,
{16}6,5,6,,
7h[8:3],,,,
,,5,,
,4,,,
{16}3,4,3,,
2,,2h[16:4],,
,,4,,
,5,,,
{16}6,5,6,,
7h[8:3],,,,
,,5,,
,4,,,
{16}3,4,3,,
2,,15,,
6,5,,3,
4,,1,,
{16}8b/2bpp4[8:1],,,,
6,,6q8[8:2],,
,,1,,
2,,3qq7[8:2],,
{16},,7,,
6,,5-8[8:1],,
,,1,,
1,,,,
{16}2b-6[8:1]/6b,,5,,
8,,8,,
7-3[8:1]/3,,4,,
1,,1,,
{16}2b/5,,7b/4,,
1b/6,,8bV26[8:2]/3V15[8:2],,
,,,,
,,,,
{16}74,,,,
4,,,,
4,,,,
4,,,,
{16}5<1[8:4]/3,,,,
3,,,,
3,,,,
3,,,,
{16}8<4[8:4]/2,,,,
2,,,,
2,,,,
2,,,,
{16}4h[4:1]/1,,2,,
3,,4,,
5h[4:1]/8,,7,,
6,,5,,
{16}2pp1[8:4]/4,,,,
5,,,,
6,,,,
7,,,,
{16}8p6[8:4]/1,,,,
2,,,,
3,,,,
4,,,,
{16}5qq6[8:3]/6,,,,
7,,,,
8,,,,
8-4[8:1],,,,
{16}5h[8:4],,,,
,,,,
4,,,3,
5,,8,,
{16}7b/1b,,,,
2^5[8:1],,,,
6pp8[8:1],,,,
4,,3,,
{16}2p1[8:2],,,,
6,,6,,
,,8,,
1,,2,,
{16}3qq5[16:5]/4,,,,
7,,7,,
,,8,,
1,,2,,
{16}3-7[8:1]/7,,3,,
5-8[8:1],,5,,
2-6[8:1],,2,,
1,,1,,
{16}8b/2b,,,,
7^4[8:1],,,,
3qq1[8:1],,,,
5,,6,,
{16}7q8[8:2],,,,
3,,3,,
,,1,,
8,,7,,
{16}6pp4[16:5]/5,,,,
4,,4>6[8:2],,
,,,,
,,3,,
{16}2h[8:2]/4,,,1,
1,,37,,
4,6,,6,
4,,78,,
{16}6b/1b>4[8:1],,,,
5^7[8:1],,5,,
2q6[8:1],,2,,
1qq4[8:4],,,,
{16}4,,,,
3,,,,
2,,,,
1,,,,
{16}3b/8b<5[8:1],,,,
4^2[8:1],,4,,
7p3[8:1],,7,,
8pp5[8:4],,,,
{16}5,,,,
6,,,,
7,,,,
8,,,,
{16}1b/6b-1[8:1],,,,
5-2[8:1],,5,,
8,,7<2[8:2],,
,,71,,
{16},,,,
8>4[16:3],,,,
4qq5[8:2],,,,
1,,8,,
{16}7^5[8:1]*>3[8:1],,,,
,,,,
4w8[8:1],,,,
,,,,
{16}6b/2b,,,3,
4,,1b/7b,,
3,,3,,
3-7[16:2],5,1h[8:1],,
{16}3b,,,,
,,,,
{24}1/8,,,2,3,4,
5/6,,,7,6,5,
{16}1b-4[8:1]/4b,,,,
5-2[8:1],,7,,
1-6[8:1],,7,,
5qq6[8:2],,5,,
{16}1bp8[8:2],,,,
,,,,
7-3[8:1],,1,,
73,,4,,
{16}8-5[8:1]/2,,,,
4-7[8:1],,2,,
8-3[8:1],,2,,
4pp3[8:2],,4,,
{16}8bq1[8:2],,,,
,,,,
2^5[8:1],,2,,
6-2[8:1],,7,,
{16}8b<3[16:3],,,,
1,,,,
2-5[8:1],,2,,
6v1[8:1],,7,,
{16}8b<3[16:3],,,,
2,,,,
1^6[8:1]*^4[8:1],,,,
1pp8[8:2],,,,
{16}8b<3[16:3]/1b,,,,
5,,,,
1q5[8:1],,8,,
7/1pp3[8:1]*qq7[8:1],,,,
{16}1b,,,,
82,,82,,
{24}7/1,,,7,6,5,
{16}4/3,,1,,
{16}8b/2b-5[8:1],,3,,
2^7[8:1]/1,,6,,
2-6[8:1],4,4,,
1-4[16:2]/2,,8,,
{16}1/7-3[8:1],,6,,
1,,2,2,
8-5[8:1]*-3[8:1],1,7,,
8,,,,
{16}1b/7b-4[8:1],,6,,
7^2[8:1]/8,,3,,
7-3[8:1],5,5,,
8-5[16:2]/7,,1,,
{16}8/2-6[8:1],,3,,
8^3[8:1],,7,7,
8w4[8:1],,6,,
8,,,,
{16}7b^5[8:1]/1b,,5,,
8-4[8:1],,4,,
1^3[8:1],,3,,
1/7,,5,,
{16}8b^6[8:1]/1b,,6,,
1-5[8:1],,5,,
2^4[8:1],,4,,
2/8,,6,,
{16}1b-6[8:1]/2b,,6-2[8:1],,
2-5[8:1],,5<3[8:2],,
3,,,,
,,,,
{16}5,,6b/4b,,
1w5[8:2],,8b/2b,,
,,,,
,,,,
{16}3,3,3,,
2h[8:3]/4,,,,
,,1,,
,83,,,
{16}6,6,6,,
5,,7h[16:4]/5,,
,,8,,
,61,,,
{16}3,3,3,,
2h[8:3]/4,,,,
,,1,,
,83,,,
{16}6,6,6,,
4,,82,,
7,5,,2,
4,,81,,
{16}2b/7bqq5[8:1],,6,,
8,,1^4[8:1],,
2,,8,,
7,,6/5-1[8:1],,
{16}4,,6pp2[8:2],,
7,,4h[8:2],,
,,,,
83,,72,,
{16}6b-1[8:1]/1b,,3,,
6/5-2[8:1],,3,,
8-4[8:1],,7,,
6/8,,7,,
{16}8b/3,,1b/6,,
7b/4,,2b/5,,
6,46,,3,
3/5-8[8:1],,,,
{48}1b,2b,3qq6[8:20],4<3[8:13],,,,,,,,,
{16},,,,
,,,,
,,,,
{16},,,,
,,,,
,,,,
,,,,
{16},,,,
,,,,
,,,,
,,,,
