&title=夏花挽浪
&artist=半只金蓝
&first=0.53
&des=暗物质的落潮
&clock_count=4
&lv_5=13
&des_5=暗物质的落潮
&inote_5=(114)
{16},,,,
,,,,
,,E6,E5,
E4,,C,,
||
Hello!
{16}1qq4[2:1],,,,
,,5h[8:5],,
,,,,
,,,,
{16}6>1[2:1],,,,
,,7h[8:5],,
,,,,
,,,,
{16}8qq3[2:1],,,,
,,2h[8:5],,
,,,,
,,,,
{48}E4,E5,E6,,,,,,,,,,
{16},,,,
,,,,
E6,,E4,,
{16}1p5[8:1],,,4>7[16:7],
,,4h[4:1],,
,,,,
,,3,,
{16}2>5[8:1],,,6pp1[16:7],
,,6h[4:1],,
,,,,
5,,4,,
{16}3q8[32:5],,,2>7[8:3],
,,2h[4:1],,
,,,,
,,3h[8:5],,
{16}E8,,,,
E8,,,,
E8,,,,
4/E8,,6/2,,
{16}8x<5[8:1],,,,
4,,3,,
1/4q8[8:1],,,,
1,,3,,
{16}7/5h[16:3],,,6,
4,5,2pp1[4:1],,
,,4,,
8,,,,
{16}6/1>4[8:1],,,,
5,,6,,
8/5p1[8:1],,,,
8,,6,,
{16}2/4,,,7/8,
,6,4h[16:3],,
,2,,,
8/3,,6,,
{16}5/1pp1[4:1],,,,
4,,7,,
6<3[4:1],,,,
1,,3,,
{16}5h[16:3],,,1,
3,8,2pp6[4:1],,
,,4,,
8,,,,
{16}8<5[8:1],,,,
4,,3,,
1>4[8:1],,4-8[8:1],,
8<5[8:1],,6bh[4:1],,
{16},,,,
4/8,,,,
5/2h[8:1],,4,3,
8x,,8x,,
{16}2bh[8:1],,4,,
6/E3/B3,,7,,
2h[8:1],,4,,
6/E3/B3,,7,,
{16}3/8,,2p6b[8:1],4,
,6p2b[8:1],2,,
,,7,,
8x,1,8,,
{16}7h[8:1],,1,,
3/A8/E1,,4,,
7h[8:1],,1,,
3/A8/E1,,4,,
{16}7/5,,3>6b[4:1],4,
,,1b,,
,,4,4,
5qq6[4:1],,6,,
{16}5x/8x,,,7,
7-4[8:1],,4,,
3<6[8:1],,2,,
1,,2,,
{32}3x/6xh[8:1],E4,,,,,2x/6xh[8:1],B2,
,,,,1x/6xp4[4:1],E1,,,
{16},,3,,
2,,1,,
{16}5bxh[8:1]/8bxh[8:1],,,7bx/6bx,
,,,,
4bxh[8:1]/1bxh[8:1],,,2bx<1v8[16:5]`3bxs7[16:5],
,,E5f/A4/A5/D5,,
{16},,,,
,,2,5,
4,6,3,,
7/8,,2/4,,
||
Chorus1
{16}6b/1bpp5b[4:1],,,8,
1,,7<4-8b[4:1],,
,,7/8,,
,,3,,
{16}1/7,,,5x/6x,
,,2bx/5bx<8b[8:1],,
,,2>5b[8:1],,
1,,8,,
{16}7-4[8:1],,4-6[8:1],,
3-8-2b[4:1],,2,2,
,,7,,
6,,3,,
{16}E5f`B4,,,A7`E7`B7,
,,E1/B1/A1f/E2,,
,,3,7,
4,5,2,,
{16}4b/6b-8v1[4:1],,,8,
6,,2-4v5b[4:1],,
,,8,,
7,,6,,
{16}3/4,,2,,
6/5,,4qq5b[4:1],5pp4[16:3],
,,,,
,,,,
{16}1b/8b,,,5/6,
,,3-5[8:1]/4-7b[8:1],,
,,3/4-1[8:1],,
,,Cf,,
{16}6x,,3,4x,
,6,5x,,
4,6,3,5,
2,,1/6,,
{16}3x/8xqq4[4:1],,,1,
8,,2>5-1[4:1],,
,,1/2,,
,,7,,
{16}6/2,,,3x/4x,
,,4bx/7bxp3[8:1],,
,,1>4[8:1],,
2,,7,,
{16}8<5[8:1],,5-1[8:1],,
1>4[8:1],,3,3,
,,2,,
8,,7/1h[8:1],,
{16}B5f,,,3/7,
,,2/6,,
3,7,4,6,
2,5,1h[8:1],,
{16}3xqq4[4:1],,,4,
3,,7xqq8b[4:1],,
,,1,,
2,,3,,
{16}4bx/8bx,,,5bx/6bx,
,,2bx/3bxpp1>2[8:3],,
,,,,
7,,6,,
{16}5,,3,4,
,6,5-1[8:1],,
,,8-5b[8:1]*-3b[8:1],,
,,8b,,
{16},,2,2,
,6,6,,
E1/E3,,,B4/B7,
,,A6/A5,,
||
WTF
{16}4,8,,5/7,
,3,4,,
5/2<6[4:1],,,8,
,,4,,
{16}3xp5[4:1],,,8,
,,4,,
2<6[4:1],,,8,
,,4,,
{16}3x,3h[8:1],,1h[8:1],
,7,7h[8:1],,
5>1b[4:1],,,,
8,,6,,
{16}4x,,,1/6h[8:1],
,2h[16:3],4x,,
7h[16:3],5x,,2h[16:3],
3x<6b[8:1],,5,,
{16}7x,,,8,
8,,6pp3b[16:5],,
5x,,,,
,,4,,
{16}2x>6[4:1],,,4,
,,8,,
1q7[4:1],,,4,
,,8,,
{16}2x,2h[8:1],,4h[8:1],
,6,6h[8:1],,
8qq1b[4:1],,,,
1,,3,,
{16}5x,,,8/3h[8:1],
,6,2x/4x,,
3,5x/7x,,8,
2x/6xh[4:1],,4,,
{16}8x>3b[8:1],,,7,
8,6qq1b[16:11],,,
3pp6[2:1],,,,
,,,,
{16},,,,
,,,,
3h[8:1],,4h[8:1],,
5h[8:1],,6h[8:1],,
||
Hello!!
{16}A8`E1,,,B5`E5,
,,3>6[4:1],,
,,5,,
5,,,,
{16}8,,,5/6,
,,4/3>6b[4:1],,
,,5,,
5,,,,
{16}8,,,5/6,
,3,4q5[4:1],,
,,1,,
2,,3,,
{16}4b/8b,,,2b/5b,
,,8bpp3[4:1]`7bp4b[4:1],,
,,,,
,,,,
{16}2/5,,3,4,
,6,5qq4[4:1],,
,,6,,
7,,8,,
{16}4/7,,6,5,
,3,4pp5b[4:1],,
,,1,,
2,,3,,
{16}4b/5b,,,6b/7b,
,,1b/2b,,
,,4b/6b,,
,,7bpp2[8:3]`3bpp6b[8:3],,
{16},,,,
,,,,
,,3,3,
4,,2/6,,
||
Chorus2
{16}3b/7bpp3[4:1],,,5,
7,,2>5[8:1],,
,,2/8-4[8:1],,
7,,3,,
{16}1b,,,5bx/3bx,
,,7bx/4bx>1[8:1],,
,,7<4[8:1],,
8,,1,,
{16}2v5b[8:1],,5-3b[8:1],,
6v1-7[4:1],,7,7,
,,2,,
3,,6,,
{16}5bx/3bx,,,6bx/7bx,
,,1bx/2bx,,
2,4,3,6,
5,7,4,,
{16}6pp7[16:3],,,8,
6,,2pp3b[16:3],,
,,7,,
6,,5,,
{16}2/4,,1,,
5/7,,8>1-4[16:3],8-5[8:1],
,,,,
,,,,
{16}8b/1b,,,4/3,
,,6-4[8:1]/5p1b[8:1],,
,,5q1[8:1],,
,,Cf,,
{16}3x,,6,5x,
,3,4x,,
6,4,5,3,
7,,8/1,,
{16}6b/2bqq6b[4:1],,,4,
2,,7<4b[8:1],,
,,7/1-5b[8:1],,
2,,6,,
{16}7,,,2x/4x,
,,6bx/5bx>7b[4:1],,
,,7,,
6,,5,,
{16}4-8[8:1],,8-6[8:1],,
1-5-3b[4:1],,2,2,
,,6,,
7,,8b/4bh[8:1],,
{16}B8f,,,7/3,
,,5/1,,
6/2,,7,3,
6,4,8,,
{16}2b/1b-5b[8:1],,,8,
1,,A7f/E8/B7/D8,,
6x-4<5-3[4:1],,2,,
1,,8,,
{16}7b,,,2b/5b,
,,8b/1b>7b[4:1]*<3b[4:1],,
,,,,
,,,,
{16}8/2,,3,4,
,6,5,,
3,4,2,,
8bx/1bxqq4b[4:3],,5bx/6bxpp4[8:5],,
{16},,,,
,,,,
,,,,
,,,,
||
Byebye!
{16}6qq7[2:1],,,,
,,,,
,,,,
,,,,
{16}8<4[2:1]/2h[4:3],,,,
,,,,
,,,,
,,,,
{16}4/2qq3b[2:1],,,,
,,,,
,,,,
,,,,
{16}4>8b[2:1]/6h[4:3],,,,
,,,,
,,,,
,,,,
{16}6-4<5-3[2:1],,,,
,,,,
,,,,
,,,,
{16}2-5>4-7[2:1],,,,
,,,,
,,,,
,,,,
{16}7p2[8:3],,,,
,,,,
,,3<6[8:9],,
,,4<6b[8:7],,
{1},E
