&title=NEVER GLOW UP - JK组
&artist=静凛x月之美兔x樋口枫
&first=0
&des=fengyue_2434
&lv_5=14.5
&des_5=fengyue_2434
&inote_5=
(90){4},{16},C,,,,E2/E3/E4,,E8/E7/E6,,,,,,5h[8:1],
,4,{8}6h[8:1],{16}4,4,,4,3,4,,5-8[0.3333##0.25],,,,2h[8:1],
,1,{8}2h[8:1],3,4h[8:1],{16}5,5/4,,5-8[0.3333##0.25],,,,5,
1,2/4pp4qq4[0.3333##0.6667],{4}3,{16},8h[8:1],1,2h[16:3],,5,5,5/3,
,A5f/E6/B6/B7/E8/E5/B4/B3/E3/A8/A2,,,A8/E8/B7/B6/E6/A5/D1/A1/Cf/B2/E4/D4/E2,,,A1/E2/B2/B3/E4/A4f/D5/A5/E6,,,{8}A8/E8/B7/B6/E6/A5/Cf/A4f/B4f/A1/B1,{16}8/2,7/3,6/4,5bw1b[0.3333##0.25],
,5b/Cf/B1f/B5f,,,,5,4,4,{8}3h[8:1],4h[8:1],2h[8:1],{16}3,4,
5,5,6,6,7,5/7,6/4,5/3,{8}4/2h[8:1],{16}6,6,5h[16:1],2,{32}2,1,{16}8/5,
5,8/5h[16:1],8,{32}8,7,6,5,{16}4,4/5,6/5,{8}5h[8:1],6,7/5h[8:1],{16}7,4-8[0.3333##0.1667],
4,5-1[0.3333##0.1667],,3-1[0.3333##0.1667],,3/6-8[0.3333##0.1667],,6,,5,4,{32}8,1,8,1,{16}8,,1/8-5[0.3333##0.1667],
,5,3h[16:1],4,3h[16:1],5,3h[16:1],6,3h[16:1],5,3h[16:1],4,3h[16:1],5,3h[16:1],6,
3h[16:1],5,6h[16:1],4,6h[16:1],3,6h[16:1],4,6h[16:1],5,6h[16:1],4,6h[16:1],3,6h[16:1],4,
6h[16:1],3,1h[16:1],2,1h[16:1],3,1h[16:1],4,1h[16:1],3,1h[16:1],2,1h[16:1],3,1h[16:1],4,
1h[16:1],3,4,2,{32}4,4,{16}1,4,2,4,{32}3,4,2,4,{16}1,1,1-5[0.3333##0.125],{32}1,6,{16}1b,
,6/4h[32:3],{32},3h[32:3],{16}6,4,6,4,6,4,5-1[0.3333##0.1667]/4-8[0.3333##0.1667],6/3,5/4,,7-3[0.3333##0.1667]/2-6[0.3333##0.1667],8/1,7/2,
,4/5h[32:3],{32},6h[32:3],{16}4,5,4,6,4,2,4-8[0.3333##0.1667]/3-7[0.3333##0.1667],5/2,4/3,,1-5[0.3333##0.1667]/2-6[0.3333##0.1667],8/3,2/1,
,4/7h[32:3],{32},4h[32:3],{16}8,7,4/6,5,3/6,7,6v8[0.3333##0.125],4v2[0.3333##0.125],6,4,7-3[0.3333##0.125],1-5[0.3333##0.125],7,
1,6h[32:3],{32},7h[32:3],,,{16}8,2/4,3,4/8,7,6-2[0.3333##0.1667]/4-8[0.3333##0.1667],,6/4,,7/3,,6/5s1[0.3333##0.3333],
,1s5[0.3333##0.3333],,5<1[0.3333##0.3333]*>1[0.3333##0.3333],,,,,,8qq8[0.3333##0.1667],{8}8-4[0.3333##0.25]/1v3[0.3333##0.25],{16},,,4<6[0.3333##0.125]/1-4[0.3333##0.125],
,1p5[0.3333##0.1667]/4q8[0.3333##0.1667],,1/4,,3/7,{8}6/2,3/7,6-2[0.3333##0.2917]/2-6[0.3333##0.2917],{4}6>4[0.3333##0.2083]/2>4[0.3333##0.2083],
{16},1>3[0.3333##0.3333]*>5[0.3333##0.6667]*>7[0.3333##1]*>1[0.3333##1.3333],,,,,,,{4}4h[16:3],{16}5,5-8[0.3333##0.1667],4-1[0.3333##0.1667],5,
4,6h[8:1],,3,5/4,5-7[0.3333##0.1667],6/3,5-8[0.3333##0.1667]/2-5[0.3333##0.1667],{4}3,{16}6,7h[16:1],8-3[0.3333##0.1667]*-5[0.3333##0.1667],1,
,,4,4,5,6-3[0.3333##0.1667],3<6[0.3333##0.1667],2,1,8-3[0.3333##0.1667],7-4[0.3333##0.1667],8,{8}7,{16}1,8-6[0.3333##0.1667],
1-5[0.3333##0.1667],8-4[0.3333##0.1667],1-3[0.3333##0.1667],8-6[0.3333##0.1667],1-5[0.3333##0.1667],8-4[0.3333##0.1667],{8}1-3[0.3333##0.1667],{16},5<8[0.3333##0.125],6,5/4>1[0.3333##0.125],3,4,8,1,
8h[8:1]/1h[8:1],,,8/1,{8}7/2h[8:1],{16}7<3[0.3333##0.1667],3>7[0.3333##0.1667],,,,,3h[4:1],2,,2,
,7/6h[8:1],,7,3h[16:3],2,,2,,7p5[0.3333##0.3333],,2q4[0.3333##0.3333],,,,,,3h[16:3]/2-7[0.3333##0.125],
{8}2,{16},6h[16:3]/7-2[0.3333##0.125],{8}7,{16},3h[16:3]/2-7[0.3333##0.125],{8}2,{16},6h[8:1]/7-2[0.3333##0.125],{8}7,
{16}3h[4:1],2,,2,6h[4:1],7,,7,3h[8:3],2,,2,,2,6h[8:1],7,
3h[16:3],2,,2,2h[8:1]/5h[16:3],,,7,{4}5-8[0.3333##0.125]/7-2[0.3333##0.125],{8}E7f/B5f/E4f,6h[8:1],
{16}4,5/3,4/2,5/3,{8}4/6h[8:1],Cf/B8/B1,{16}7,1/7h[8:1],2,3,{8}4/8,{16}Cf,1-4[0.3333##0.1667]/4-7[0.3333##0.1667],
,1<8-5[0.5##0.1667]/4v1[0.5##0.1667],,,1-4[0.5##0.1667]/4<6[0.5##0.1667],,,4q8[0.5##0.1667]/1p5[0.5##0.1667],,,{8}4/1,{16}7/1,6/2,5/3,4w8b[0.3333##0.125],
,4b/B4f/Cf/B8f,,,3,4,5,6,{8}6h[8:1],3h[8:1],5h[8:1],{16}4,5,
6,5h[8:1],4,3h[8:1],2,1h[16:3],8,7,{8}6h[8:1],{16}5,4,5,4,{32}5/4,6/3,{16}7/2h[16:1],
7,{32}7bx,8,1,2,1bx,2,3,4,{16}5h[8:1],6,6,{8}6h[8:1],7h[8:1],5h[8:1],{16}4,5/6,
7/6,7/6,5,8/5,5,1/4,4,2/3,3,5/3,{32}3,6,{16}2,{64}6,,,,,,,7x/8x-5[0.3333##0.5417],,,,,,,,,,,,,,,,,,,,7x-2[0.875##0.3333],
,,,,,,,,,1xq5[0.875##0.3333],,,,,,,,,,,{32}7,,,,,1b,,,,,{16}4xv1[0.875##0.3333],{32},,,4xv7[0.875##0.3333],
{64},,,,,,,,,4,,,,,,,,,,4b,,,,,,,,,,3xpp3[0.875##0.375],,,,,,,,,,,{8}3xqq3[0.8333##0.3333],{32},3,{64},,,,,,,,,5b,,,,,,,,,{32}5x<7[0.875##0.2083]/4x>2[0.875##0.2083],
{64},,,,,,,,,2x-7[0.8333##0.25]/6x-3[0.8333##0.25],,,,,,,,,,,,,,,,,,,,6b/2bx,,,,,,,,,,5/2x<1[0.875##0.2083],,,,,,1x-4[0.8333##0.2083],,,,,{32}4xpp4[0.8333##0.375]/2x-7[0.8333##0.2083],{64},,,2x,
,,,,{16}2,{32},,,2b,{64},,,,,,,,8x-5[0.875##0.1667],,,,,5x-8[0.875##0.1667],,,,,,1x-4[0.8333##0.1667],,,,,,,,,,8x,,,,,,,,,,1b<8-4<5b[0.4167##0.4167],,,,,,,,,,1-4-8-5[0.4583##0.4167],
,,,,,,,,,,{16}1<8-4<5b[0.4167##0.4167],{32},,,1,{64},,,,,,,,7,,,,,7/6h[32:5],,,,,,,,,,5x,,,,,,5x,,,,,{32}5x,{64},,,7b-5[0.4167##0.375],
,,,,,,,,,8/7,,,,,,,,,8bx,7x,6x,5x,4x,3x,2x,1x,8bx,7x,6x,5x,4x,3x,2x,1x,8bx,7x,6x,5x,4x,3x,2x,1x,8bx,7x,6x,5x,4x,3x,2x,1x,8bx,7x,6x,5x,4x,3x,2x,1x,8bx,7x,6x,5x,4bx,3x,
2x,1x,8x,7x,6x,5x,4bx,3x,2x,1x,8x,7x,6x,5x,4x,3x,2x,1x,{32}5-1[0.3333##0.125],,6,,5/4-8[0.3333##0.125],,3,,4/8-4[0.3333##0.125],,7,,8/1-5[0.3333##0.125],,2,,1v3[0.3333##0.1667],,1v4[0.3333##0.1667],,1-5[0.3333##0.1667],,1v6[0.3333##0.1667],
,1>1[0.3333##0.3333],,,,1,,,,3,,3,,3,,3,,4/6-2[0.3333##0.1667],,4,,4/6,,4,,5,,5,,5,,5bw1[0.3333##0.25],
,,,5b,,,,,,6/7,,,,3/2,,,,8/1,,2/7,,6/3,,5/4,,4,5,3,6,2,7,1,
8,1,2,3,4,5h[8:1],6,7,8,1>1[0.3333##0.6667],,,,,,,,,,,,,,6h[16:5],,,,,,5,,7,
,3h[4:1],,2,,B2,,2,,6h[4:1],,7,,B7,,7,,3h[4:1],,2,,B2,,2,,7h[8:1],,,,B7,,7p5[0.3333##0.3333],
,2q4[0.3333##0.3333],,7,,2,,,,,,5,,6,,7,,6-3[0.3333##0.2083]/7-2[0.3333##0.2083],,,,,,,,8/1,,7/6,,5/4,,3/2,
,,,8,,7-3[0.3333##0.125],,6,,5-1[0.3333##0.125],,4,,3-7[0.3333##0.125],,2,,1-5[0.3333##0.125],,8,,7-5[0.3333##0.1667],,6,,7-4[0.3333##0.1667],,4,,3/7-3[0.3333##0.1667],,2,
,1,,8h[8:1],,6-2[0.3333##0.1667],,6,,,,7-3[0.3333##0.1667],,7,,7/8-4[0.3333##0.1667],,,,8-5[0.3333##0.1667],,1,,8b/1-4[0.3333##0.2083],,,,1b,,,,8,
,1/8-4[0.3333##0.2083],,7,,8-5[0.3333##0.2083]/1-4[0.3333##0.2083],,2,,8/1,,,,6-4[0.3333##0.125],,6,,7-3[0.3333##0.125],,7,,8-2[0.3333##0.125]*-5[0.3333##0.125],,8,,,,,,,,8,
,8-6[0.3333##0.125],,1-5[0.3333##0.125],,2-4[0.3333##0.125],,,,,,5,,5qq2[0.3333##0.4167],,5,,5h[8:1],,,,,,5,,4-2[0.3333##0.1667],,5,,4/5-7[0.3333##0.1667],,,,2h[8:1]/5>8b[0.3333##0.4167]*p8b[0.3333##0.4167],
,,,5b,,,,,,,,5v7[0.3333##0.1667],,5v3[0.3333##0.1667],,5v8[0.3333##0.1667],,5v2[0.3333##0.1667],,5<3<5b[0.3333##0.6667],,5,,,,,,5v2b[0.3333##0.25],,5h[8:1],
,,,,,4,,3h[8:1],,,,5,,5,,5h[8:1],,,,4<7[0.3333##0.2083]*>1[0.3333##0.2083],,5,,4bw8[0.3333##0.25],,,,4b,,,,Cf/E8/E7/E6/E4/E3/E2,
,,,,4,5,4,5,4,5-1[0.3333##0.2083],,4-8[0.3333##0.2083],,5,,4,,5,,Cf,,8,7,6,5,4/3,,4-7[0.3333##0.1667]/5-2[0.3333##0.1667],,6/5,,5/4,
,,,Cf,,,,,,8b/7b,,6,,5,,4b/3b,,3,,4,,5b/6b,,7,,8,,1b/2b,,,,1/8,
,1/7,,1/6,,1/5w1b[0.3333##0.25],,,,Cf/B1f/B5f/5b<5[0.3333##2.1667],{4},,,{16},,,{32},5h[8:1]/1-7[0.3333##0.1667],
,,,1,,,,5h[8:1]/1-3[0.3333##0.1667],,,,1,,,,5h[8:1]/1-7[0.3333##0.1667],,,,1,,,,5h[8:1]/1-3[0.3333##0.1667],
,,,1,,,,5h[8:1],,,,,,6x>5-1[0.3333##0.25],,,{16}1x<7v4[0.3333##0.25],{32},,,,4x,3xh[64:3],{64},,,3xh[64:11],{4},{16},,{32},5/3xh[8:1],
,,,,2x,3x,4x,3x,,2x,,3x,,4x,,5x,,1bx-3[0.3333##0.125]/2x-4[0.3333##0.125],8x,7x,{16}6x,
{32},,,,,,,,,8x,,,,7v2[0.3333##0.1667],1,7,1,7v5[0.3333##0.1667],,,,7,,,,4,,2,,4,,5,
6,4,3,2h[16:1],,6h[8:1],,,,7,,3,,6,,2,4,3,5,4,,6h[8:1],,5,,4,,3x,5,3x,,3x,
,3x,,3x,,3x,,3x,,3x,,3x/6<2v4[0.3333##0.4167],,3x,,3x,,3x,,3x,,3x,,3x/6V85[0.3333##0.375],,3x,,3x,,3x,,3x,
,3x/8x-5[0.3333##0.2083],,3x,,3x,,3x,,3x/8x-5[0.3333##0.2083],,3x,,3x,,3x,,3x/8x-5[0.3333##0.2083],,3x,,3x,,3x,,3x/8x-5[0.3333##0.2083],,3x,,3x,,3x,
,3x/8x-5[0.3333##0.2083],,3x,,3x,,3x,,6b,,7,,3b,,2,,6b,,7,,3b,,2,,5b,,4,,5b,,4,
,5bx,4,5bx,4,5bx,4,5bx,4,5bx,6x,7x,8x,1bx,2x,3x,{64}4x,5bx,6x,7x,8x,1x,2x,3x,{96}4x,5bx,6x,7x,8x,1x,2x,3x,4x,5x,6x,7x,8x,1x,2x,3x,4x,5x,6x,7x,{6}8x>7[0.3333##1.9444],
{4},,{16},,,{64},,{32}4h[16:3],,,,5h[16:1],,,,,,,,,,,,,,E1/A2/D2/A1/D1/A8/D8/A7/D7/A6/E3/E2/D3/E8/E4/E6/Cf/B1/B2/B3/B4/B5/B6/B7/B8/E7/A3,
,,,,,,,1-5[0.3333##0.1667],,,,5-1[0.3333##0.1667],,,,Cf,,,,,,E6/E5/E4,
,C/E3/E7,,,,E8/E1/E2,,,,Cf/E7/E1/E5/E3/E8/E6/E4/E2,,,,7-3[0.3333##0.1667],,7,,2-5[0.3333##0.1667],,2,,4pp1[0.3333##0.3333],,4,,3-8[0.3333##0.1667],,3-6[0.3333##0.1667],,3b,,3b,
,,,,,7-5[0.3333##0.1667],,1,,7/3-5[0.3333##0.1667],,1,,7-5[0.3333##0.1667],,1,,7/5-7[0.3333##0.1667],,3,,5/7-1[0.3333##0.1667],,1-3[0.3333##0.1667],,3-5[0.3333##0.1667],,5-7[0.3333##0.1667],,5,,7,
,8,,8/1,,8/1,,8h[8:1]/1-4-7-2[0.3333##0.5],,,,,,7,,6h[8:1],,,,,,1-3-5[0.3333##0.3333]/5-7-1[0.3333##0.2917],,5/1,,,,,,,,5/1,
,4/8,,7/3,,6/2,,5/1,6/2,7h[8:1]/3h[8:1],,,,,,7/3,,3/7-2[0.3333##0.1667],,8,,7/3-6[0.3333##0.1667],,4,,3,,,,,,4/7,
,7/4,,5/1,,7/3,,5/1h[8:1],,,,5,,8-4[0.3333##0.1667],,7,,8h[8:1],,,,1-5[0.3333##0.1667],,2,,1h[8:1],,,,B7/B6/C/B2/B3,,B7/B6/C/B2/B3,
,,,1,,1-7[0.3333##0.1667],,7-2[0.3333##0.1667],,2-6[0.3333##0.1667],,6-3[0.3333##0.1667],,3-5[0.3333##0.1667],,5>4-8[0.3333##0.3333],,4,,8,,B1/B2/B3,,B7/B6/B5,,5/7-4[0.3333##0.125],,7,,8-4[0.3333##0.125],,1-5[0.3333##0.125],
,8,,1,,4h[8:1],,5h[16:1],,,,5/4,,5/4,,5>2[0.3333##0.2083]/4<7[0.3333##0.2083],,,,A5/D5/A4,,,,5pp5qq5[0.3333##0.6667],,,,,,,,2h[8:1]/B5f,
,,,,,4,3,4,3,4,,5,,6,,7qq7[0.3333##0.4167]*pp7[0.3333##0.4167],,,,B7f,,,,,,,,,,2,,2pp2[0.3333##0.4167]*qq2[0.3333##0.25],
,,,B2f,,,,,,B5/B4/B3/E3/A2/B6/E7/A7/E5f,,1,8,1,,A8/E8/B7/B6/E6/A5/D1/A1/Cf/B3/A3/E2/B2,,2,6,2,,A1/E2/B2/B3f/E4/A4/D5/A5/E6,,8,7,8,,E8/B7/B6/E6/A5/Cf/B1/A1/B4/A4/A8,,,,5,
,5,,5,,5b,,,,5b-1b[0.3333##1.1667],,5,6,5,,5,6,5,4,5w1b[0.3333##0.2083],6,,,5b/B7/Cf/B3,,,,,,3h[8:1],,5,
,5,3,5,2,5,1,5,8,6h[16:1],,B7,,6h[16:1],,B7,,3h[16:1],,B2,,3h[16:1],,6p4[0.3333##0.3333],,,,6/3q5[0.3333##0.3333],,,,3,
,7,,7,7,7,,7<4[0.3333##0.125],,,,7/3,,3,,3/4,,8/7,,2-5[0.3333##0.125]/1-6[0.3333##0.125],,,,2/1,,,,5/3,,5/3,,4/2,
,3/1h[8:1],,3,4,5h[8:1],,8,1,2h[16:1],,B2,,2h[16:1],,B2,,4-8[0.3333##0.1667],,3-1[0.3333##0.1667],,4,,3b-5[0.3333##0.1667],,,,3b/2h[8:1],,,,4,
,4,,7,8,7,,5,4,5-8[0.3333##0.125],,5-2[0.3333##0.125],,5,,5,,7/1,,1/7h[8:1],,,,1,,8-3[0.3333##0.2083]*-5[0.3333##0.2083],,,,8bw4b[0.3333##0.25],,,,8b/Cf/B6f/B2f,
,,,7/1,,7/1,,7-3[0.3333##0.125]/1-5[0.3333##0.125],,,,7/1,,,,6h[16:1]/2h[16:1],,,,,,7-4[0.3333##0.1667]/8-3[0.3333##0.1667],,,,8/7,,,,5,
,5/7-3[0.3333##0.1667],,7,7,7b,,8-6[0.3333##0.125],,,,8-5[0.3333##0.125],,8-4[0.3333##0.125],,8-3[0.3333##0.125],,8-2[0.3333##0.125],,8,,8V64[0.3333##0.25],,,,4V28[0.3333##0.25],,,,8-4[0.3333##0.25],,,,4,
,2,1,8h[8:1],,4,5,6h[8:1],,B7,,7,,B7,,7,,8/1x-4<5[0.3333##0.2083],{64},,1x,8x,1x,8x-4[0.3333##0.1667],{32}1xv3[0.3333##0.1667],,,,,,,,6/2h[16:1],
,6h[16:3],,7-2[0.3333##0.125],,,,7,,6h[16:1],,5,,6h[16:1],,7,,5/4,,5/4,,,,5,,5,,4,3,4,,2,
3,3,4,4,5,5,6,6,,Cfh[8:1],,,,B7/B6,,,,Cfh[8:1],,,,B2/B3/7bw3b[0.3333##0.25],,,,,,,,Cf,,,,E5/E1/C,
,,,,,,,,{16}E7/D8/D6,{32},,,,,,,,,,,D2/E3/D4,
E
