&title=Dahlia
&artist=BlackY
&first=0.31
&des_4=Anemii
&lv_4=12+
&des_5=Aello
&lv_5=14
&des=Aello
&inote_4=(185){1},
{8}C,,,,1xb,,,,2,,,3,,,4,,5>8-5[4:6],,,6hxb[8:5],,,,,,,,,,,,,8bx,,,7,,,6h[4:1],,,,,,2,,,,3bV14-7[4:6]/7bV58-3[4:6],,,,,,,,,,,,,,,,
{8}4h[8:1]/5h[8:1],,4h[8:1]/5h[8:1],,6,5,6,,
7h[8:1]/8h[8:1],,7h[8:1]/8h[8:1],,2,1,2,,
3h[8:1]/4h[8:1],,3h[8:1]/4h[8:1],,2,5,2,5,
3,6,3,8,3,4,2h[4:1],,
7-1[8:1],,2-6[8:1],,4,,5,5,,34,,17,2,2,8,3,4,4,5,5,6,6,3,3,7,2,7,4,7,1,6,,
{16}5h[4:2],,,2,,,3,,4xbh[2:1],,,5,,,6,,
7xb,,,,38,,3xb-8[8:1]/8xb-5[8:1],,,,,,,,,,
2xbh[2:1],,,4,,,5xb,,6h[2:1],,,2,,,3,,4,,,,57,,5-1[8:1]/7-5[8:1],,,,,,,,,,
2xb,,,4,,,3,,25,,,,4b/7b,,,,6,,,5,,,7,,4b/8bq6[4:1],,,,,,,,2xbh[2:1],,,7,,,6,,5,,,,34,,25,,1h[2:1],,,6,,,7,,,B7,B6,,Ch[4:1],,,,
2,,,4,,,3,,7bx,,,5,,,6,,3bx/4bx,,,,25,,2xb-5[8:1]/5xb-8[8:1],,,,,,,,,,
8xb,,,6,,,7xb,,1,,,4,,,3,,56,,,,47,,1/2qq5[8:3],,,,,,,,,,
7,,,7,,,6,,46,,,,2b/5,,,,
4,,,5,,,7,,,,35,,35,,,,
2b,,2,,6b,,6,,2x,8x,2x,8x,1x,7x,1x,7x,
8xh[2:1],,,7x,,,6,,5h[2:1],,,1,,,2,,
3xbs7[8:3],,,,,,,,,,,,5x/6x,,5x/6x,,
5xh[16:1]/4xh[16:1],,5xh[16:1]/4xh[16:1],,{12}3x,3x,3x,5x,5x,5x,C,,,
2x,2x,2x,7x,7x,7x,1x,1x,1x,{16}8xh[8:1],,2x,2x,
{12}6x,6x,6x,3x,3x,3x,5p7[4:1],,,,,,
{12}2b^5[8:1],,,{16},,1b-5[8:1],,,,,,8b,,,,
{12}7x,7x,7x,5x,5x,5x,{16}6x,,3x,4x,3x,4x,3x,,
2bxh[8:1]/5bxh[8:1],,,,3h[8:1]/6h[8:1],,,,{16}B2,B7,B3,B6,D2,D8,D4,D6,
1xbqq5[4:2]*pp5[4:2],,,,,,,,,,,,,,,,
{24}7bx,6x,5x,4x,,,,,,1bx,2x,3x,4x,,,,,,8bx,7x,6x,{8}5xqq8>4[4:3],
,,,,,,,,
{12}2x,2x,2x,8x,8x,8x,6x,6x,6x,{16}4xh[8:1],,2x,2x,
{12}3x,3x,3x,1x,1x,1x,7x,7x,7x,5x,5x,5x,
{12}4b^1[8:1],,,{16},,5b-1[8:1],,,,,,6b,,,,
{12}E2,E6,E4,E8,D2,D6,D4,D8,B2,B6,B3,B7,
{1}1bqq4>5b[4:6]*bpp6<5b[4:6],
,
{8}E6,,,B6,,,B7,,,E8,,,,,,,
E4,,,B3,,,B2/8p6[2:1],,,,,,,,,,
E6,,,B6,,,B7,,,E8,,,,,,,
E4,,,B3,,,B2/6q8[2:1],,,,,,,,,,
{8}3h[4:1]/4h[4:1],,,,3h[4:1]/4h[4:1],,,
,2h[4:1]/4h[4:1],,,,2h[4:1]/4h[4:1],,,,
5h[4:1]/6h[4:1],,,,5h[4:1]/6h[4:1],,,,
5h[4:1]/7h[4:1],,,,5h[4:1]/7h[4:1],,,,
34,,25,,16,,78,,
{16}1h[8:1]/2h[8:1],,,,3h[8:1]/8h[8:1],,,,4h[8:1]/7h[8:1],,,,5h[8:1]/6h[8:1],,,,
7,,7,,4,,4,,8,,8,,2,,2,,
1x,8,1,8,1,8,1,8,1b,8,1,8b,1,8,1b,8,
1bpp4[4:3]*qq6[4:3],,,,,,,,,,,,,,,,
,,,,7xp4b[4:1],,,,2b,,,,,,,,
{16}7b,,7,8,,8,6,,2^5[8:1],,,,,,,,
6,,6,5,,5,7,,8-4[8:1],,,,,,,,
3x,,3x,4,,4,2,,6,,,,7b/5b,,2x,1x,
2x,1x,2x,,3,4,,4,1-5[8:1],,8,,,,,,
6-2[8:1],,,4,,,3,,3^8[8:1],,,,,,,,
7-3[8:1],,,1,,,2,,2^5[8:1],,,,,,,,
17,,,2,,,13,,13,,,,8,,1^4[8:1]/7,,
,,8-4[8:1],,,,,,3b,,,2b,,,1b/8b,,
2b,,2,1,,1,3,,7,,7,8,,8,6,,
3,,3,4,,4,2,,1-5[8:1],,,,7h[8:1],,,,
6x,,6x,5,,5,8,,3,,3,,2b/4b,,7x,8x,
7x,8x,7,,6x,5x,,5x,8xb-4[8:1],,1,,2h[8:1],,,,
6b,,6,8,,8,5,,3,,3,,2,1,2,,
3,,3x,4x,,4x,5x,,6x-2[8:1],,,,4h[8:1],,,,
3x/8x,,,7,,,16,,16,,,,34,,34,,
5x,3x,5x,3x,6x,4x,6x,4x,7bx,,,8bx,,,1bx/2bx,,{1}3bxq6[4:13]*qq6[4:13],,,,
{8}8,,,7,,,6,,,1,,2,,3,,4bh[2:1],,,,{16}B7,B6,B5,B4,B3,B2,B1,B8,E8,E7,E6,E5,E4,E3,E2,E1,A8,A7,A6,A5,A4,A3,A2,A1,A8,A7,A6h[1:2],,,,,,C,,,,,,E3,,,,{4},,,{24}A5,D5,A4,D4,A3,D3,
A2h[1:4],
&inote_5=(185){1},
{8}C,,,,1xb,,,,
2,,,3,,,4,,
5<2qq5[4:7],,,4xb,,,,,
{1},
{8}3xb,,,4,,,6h[4:1],,
C,,,,7xb,,,,
8v5v2[4:6]/A3h[4:7],,,,,,,,
,,,,,,,,
{8}4h[8:1],6,4h[8:1],6,3h[8:1],5,3h[8:1],5,
2h[8:1],6,2h[8:1],6,1-5[8:1],5,,,
6h[8:1],B4,6h[8:1],B3,6h[8:1],A4/E5,6h[8:1],A3/E3,
7h[8:1],4,7h[8:1],3,8-4[8:1],2,8,,
2-5[8:1]/5-1[8:1],,25,,7-3-5[4:1],,2,2h[8:1],
,1-5[8:1],,1,7-5[8:1],7,2,2,
3-5[8:1],3,6,6,7-4[8:1],7,2,2,
{8}1,1,{16}2,8,2,8,3,7,3,7,{24}4x,5,6,7,8,1,
{16}2xb^5[8:1],,,5,,,8,,2^5[8:1],,,3,,,1,,
2-6[8:1],,,,8,,8-5[8:1]*-3[8:1],,,,8,,,,,,
7x^4[8:1],,,4,,,1,,7^4[8:1],,,6,,,8,,
7-3[8:1],,,,1,,1w5b[16:2],,,,1b,,,,,,
2xb-5[8:1],,,5-1[8:1],2,,7,,8-4[8:1],,,,8b/2b,,,,
3bx-1[8:1],,,1-5[8:1],3,,7,,6-2[8:1],,,,6,,,,
38,,,7,4-2[8:1],,2-5[8:1],,5b-1[8:1],,,,6,,7,,
{24}8b,7,6,{16},{24}2b,3,4,{16},{24}6b,5x,,{16}3h[16:1],,3h[16:1],,{24}4,5,6,7,8,1,
{16}2bx^5[8:1],,,5,2,,8,,1^4[8:1],,,4,1,,8,,
8-4[8:1],,,,8,,7-5[8:1]*-3[8:1],,,,7,,,,,,
7b^4[8:1],,,4,7,,1,,8^5[8:1],,,5,8,,1,,
1-5[8:1],,,,1,,2>5[8:1],,,,B7,B8,B1,B2,B3,B4,
B5/B6/1x-5[8:1],,,7,1,,7,,3x-1[8:1]/4x-8[8:1],,,,34,,,,
7x-3[8:1]/5x,,,5,7,,2b-5[8:1],,,,2/5,,,8,,,
1h[16:3]/4,,,4,8h[16:3],,3,,7h[16:3]/3,,,2,6h[16:3],,2,,
1bxh[16:3],,,2h[16:3],,,3,,5h[16:3],,,6h[16:3],,,7,,
{16}8b>5-8[2:1]/Cf,,,,,,,,,,,,3h[16:1],,3h[16:1],,
5h[16:1],,5h[16:1],,{12}2,4,3,7p6[4:1],5,6,4,,,
2,2,2,6,3,5,1,4,3,{16}8h[8:1],,6,7,
{12}3,5,4,6<3q5[2:1],3,5,4,,,,,,
{12}1b,,,{16}6h[16:1],,1b,6h[16:1],,,,,1b/4h[16:1],,4h[16:1],,
{12}2,5,3,8,5,7,{16}2x,,1,1,1,1,1,,
2bh[8:1]/8bh[8:1],,,,1h[8:1]/3h[8:1],,,,{16}2,4,1,6,5,8,3,6,
1b-6-8v5[4:2]*-4-2v5[4:2],,,,,,,,,,,,,,,,
{24}7b/1,6,5,4^1[8:1],,,,,,8b,7,6,5^2[8:1],,,,,,1b,8,7,{8}6-3-8-5-2-7-4[4:3],
,,,,,,,,
{12}1,3,2,7,5,6,2,4,3,{16}8,,2,2,
{12}7,5,6,3,5,4,8,5,6,2,5,4,
{12}8b,,,{16}3h[16:1],,8b,3h[16:1],,,,,8b/5h[16:1],,5h[16:1],,
{12}7,4,6,1,4,2,8,5,6,2,5,3,
{1}1b>8pp5b[4:6],
,
{8}3h[4:3]/E6,,,B6,,,B7,,,E8,,,3h[4:1],,,,
6h[4:3]/E4,,,B3,,,B2,,6h[4:1],,,,6h[4:1],,,,
3h[4:1]/E6,,,B6,3h[4:1],,B7,,3h[4:1],E8,,,3h[4:1],,,,
6h[4:1]/E4,,,B3,6h[4:1],,B2,,6h[8:1],,6h[8:1],,6h[8:1],,6h[8:1],,
{8}2h[16:4]/4,,,2h[4:1]/4,,,2h[4:1]/4,,
,2h[4:1]/4,,,35,,46,,
5h[16:4]/7,,,5h[4:1]/7,,,5h[4:1]/7,,
,5h[4:1]/7,,,46,,35,,
24,,35,3,35,,46,4,
{16}73,,2,6,2,,15,,15,,2,,37,,37,,
4,6,4,6,3,7,3,7,2,8,2,8,1,7,1,7,
2,6,2,6,3,5,3,5,2b,3,4,8b,7,6,1b,2,
34,,3-5[8:1]/4,,,,3/7-4[8:1],,,,2-6[8:1]/7-1[8:1],,,,27,,
,,,,8,7,6,5,{32}1,2,3,4,5,6,7,8,1/5b,,,,,,,,
{16}2-6[8:1],1,,1,2,,8,,7-3[8:1],8,,8,7,,1,,
1-5[8:1],4,,4,1,,6,,6-2[8:1],4,,4,6,,3,,
3-7[8:1],1,,1,3,,8,,5,4,3,2,15,,2,4,
3,5,4,6,3,5,4,6,3,7,3,7,2,8,2,8,
{16}2-6[8:1],,,1,2,,8,,4hx[4:1]/7,,,,{24}3,2,1,8,7,6,
{16}5-1[8:1],,,4,5,,4,,3/8xh[4:1],,,,{24}7,6,5,4,3,2,
{16}1-5[8:1],,,8,1,,8,,4xh[4:1]/7,,,,8b,,{24}8b,7,6,
{16},,{24}1b/2b,3,4,{16},,1b/7b,,{24}3b,4,5,{16},{24}8b,7,6,{16},{24}1b,2,3,
{16}7b^2[8:1],5,6,4,7,,3,,4h[8:1],,{24},3,2,1,8,7,6,5,4,
{16}3/1-5[8:1],,,8,1,,7,,7/4hx[8:1],,,,46,,35,,
{16}2b^7[8:1],4,3,5,2,,6,,5h[8:1],,{24},4,3,2,1,8,7,6,5,
{16}8x,7x,6x,5x,2,4,2,4,{24}1b,2,3,{16},{24}7b,6,5,{16},{24}2b,3,4,
{16}8b^5[8:1],2,1,3,8,,2,,1h[8:1],,{24},4,3,2,1,8,7,6,5,
{16}4/2-6[8:1],,,1,2,,8,,8/5hx[8:1],,,,47,,36,,
{16}5b^8[8:1],3,4,2,5,,3,,4h[8:1],,{24},1,2,3,4,5,6,7,8,
{16}4x,3x,2x,1x,6,8,6,8,{24}5b,6,7,{16},{24}3b,2,1,{16},{24}6b,7,8,
{1}4bv1-3v8-2-4[4:6]*v7-5v8-6-4[4:6],
,{8}3h[8:1]/C,,3h[8:1],,3h[8:1],,3h[8:1],,
6h[8:1]/B2/B1,,6h[8:1],,6xh[8:1]/B5/B6,,6xh[8:1],,
3bh[8:1],5,3h[8:1],5b,2h[8:1],6,2bh[8:1],7,2,8b,1,7b,2,6b,,5bh[2:1]/4b,
,,{16}4,3,2,1,4x,3,2,1,8,7,6,3,
4,3,5,4,5,2,4,3,6,4,5,1,4,2,7,4,
6b,,,,,,3,,,,,,3,,,,
,,,,,,,,,,,,{24}A4,D5,A5,D6,A6,D7,
A7/2x-5^6-1[4:15],
