&title=月時計 ~ ルナダイアル(東方紅魔郷)四重奏-Quartet--TAMUSIC
&artist=ZUN
&first=1.045
&des=柊
&lv_1=14.6
&inote_1=(165)
{2}{256}
(165){8}6,5,4,3,6>3[2:1],,
{8},,7,8,1-6[8:1]*v4[8:1],,,,,,
{8}3,4,5,6,3<6[2:1],,
{8},,2,1,8-3[8:1]*v5[8:1],,,,,,
{8}2,3,6h[8:6]/4,5,7>4[8:4],,,,
{8},7,7,,{16}8/2,,,4/5,,,6/7,,8>8[16:13]/2,,,,,,,,,,,,,,,{24}2,3,4>8[8:1]*<8[8:1],,,,,{48},
{8},,B8,B7,B6/4-8[8:1],,
{8}1,,7<4[2:1],,1,,2,,
{8}3,2-4[8:1]/8-5[8:1],,,,1,7/8pp5[2:1],,
{8}4,,4,,3,,3-6[8:1]/5h[4:1],,
{8},7-4[8:1],8,1,2>5[8:1],1,8,7,6hx[24:9]/8hx[24:9],,,
{24},7,6,5pp7[4:1]b*qq2[1:1],,,{8},,,,,8,,7,,6>1[2:1],,
{16}7,,,,,,{24},7,6,{16}5,,,,2,,6,,4/5h[16:12],,,,,,,{24}2,3,4h[48:11],{16},,,{8},,4h[2:1],,,{16}B4,B3,B2,,,,1/7h[16:4],,B7,B6,B5,
{16},,,3h[4:1]/4,,B3,B2,B1,,
{8},{24}7,,,,3,4,{8}6/5-1[8:6],,,6,4,3,7,2,8>8[8:6],,,,1,,2,,4-8[8:1]b,,,5,6,1,7,8,2-5-7[4:1],,8,1-3-6[4:1],,,8,1,2-7-4-1[8:7],,7,6-3-8-5[8:7],,,,,,,,,
{8}8,6,5,7<5[8:1],3,,,{24}3,4,3,{8}4-2-5-1[8:3],,
{8},,2h[2:1],,,,B7,E3,E7,E4,B5,,,{24}6,5,6,{8}5qq6>3[8:7],
{8},,,7h[4:1],,,,1h[4:1],,,,3h[4:1]/6pp3[2:1],,,,3<2[2:1],,,,2qq8[4:1]*pp4[4:1],,,,,,
{8},,C,,,3>1[8:1],4,,,5>3[8:1],6,,,8<6[8:1],1,,,,
{8}C,,,6-4[8:1],B3,,,3-1[8:1],E5,,,8-6[8:1],E2,,,,
{8}C,,,2-5[8:1]/7h[8:1],,,,6h[8:1]/3-8[8:1],,,,1h[8:1]/6-3[8:1],,,,,
{8}8/1<1[8:3],,,,8-4[8:1],7,6,5,8>3[8:1],7,6,5<7-3[16:3],4,3,2,1,C,
{32},,E7,B6,B5,,,,2h,,,,B2,B1,E1,,,,3,,4,,,,5,,,,7h[32:8],,,,,,B7,B6,B5,,,,1,,,,8/2,,,,8,,,,
{8}8-4[8:1]/4-8[8:1],,8b-5-2-7-4[8:12]/4b-1-6-3-8[8:12],,,,,,,,,,,,,,,,
{4}3<6[2:1],,6-2[2:1],,2<7[2:1],,
{4}7-3[2:1],6b,6b,5b,5b,4b,
{8}2h[8:1]/3,3,2h[8:1]/8,8,7h[8:1]/1,1,7h[8:1]/6,6,
{4}5/4<7-3>8[8:6],,{8},,8pp4[8:5],,5-7[8:1],,,,,,8-5[8:1],7,
{8}2,,3/4,,1/2-5-7[2:1],,1,8,7b>3[8:3],,6,,6,,5,,
{8}5b/6b,,5/4,4,3<6[8:1]/5,7h,3/8,8,7-4[8:1]/1,2h,7/3,2,1-5[8:1]/5,6h,7/1,8,6/4,1,5/7,2,7/8,5,
{8}2<7[8:1],C,2x>5[8:1],C,2x,C,2x-6[8:1],C,2,8-4[8:1],
{8}4b-2-5-1-6-8[8:6]b,,,,1,,2,,{32}2,3,4,,,,{16}6,5>2[8:1],,7,,7,,8-4[8:1],,1,,8,,{64}1bx-7-5-3-1[8:6],E2/E5,B2/B5,B3/B6,E4/E7,,,,
{16},,
{8},,,,,,8>3[8:1],,7,6-4[8:1],B1/B2,6-8[8:1],B3/B4,6-2[8:1],5b>7v5[8:6]b,,,,,,
{8}6h[4:1],,,,6v4[8:1]/1,,1,2,3/5,6,
{16}8b,7,8,7,5,6,5,6,4,6,4,6,3,5,3,5,3b,4,2,5,1,6,8,7,5,6,4,7,3,8,2,1,Cf,,
{16},,,,,,,,,,,,,,{1},{128},
{16}4x-2-5[4:1],,6,,5-1[8:1],,{24}6,,,7,,7,,E7,B6,E2,{24}B2,,,
{16}8x-6-2[4:1],,1,,2<4[24:5],,{24}3,,,4,,4,,B4,B3,B2,{24}B1,,,
{16}2x-5[8:1],,1,,7<4[8:1],,{24}8,,,1,,1,,3,2,1,{24}8-4[8:1],,,
{16}4x-6-2[4:1],,8,,3,,{24}3,,,4,,4,,1,3,1,{24}3,,,
{16}5x-7-4[4:1],,3,,4-8[8:1],,{24}3,,,2,,2,,E3,B3,E8,{24}B7,,,
{16}1x-3-7[4:1],,8,,7>5[24:5],,{24}6,,,5,,5,,B5,B6,B7,{24}B8,,,
{16}7x-4[8:1],,8,,2>5[8:1],,{24}1,,,8,,8,,6,7,8,{24}1-5[8:1],,,
{16}5x-3-7[4:1],,1,,6,,{24}6,,,5,,5,,8,6,8,{24}6,,,
{16}7x-5[8:1],,8-4[8:1],,7,,{24}8,,7,6,5,3,2,1,,,2-4[8:1],,,
{16}4x-8[8:1],,2,,5,,{24}7,,2,3,4,6,5,6,,,1/8,,,
{16}7x<5[8:1],,8>2[8:1],,7-3[8:1],,{24}8-4[8:1],,,7,,,8,E4,E5,E6,E7,E8,E1,
{16}E2/4x-2[8:1],,5-7[8:1],,4-8[8:1],,{24}5-1[8:1],,,4,,,5,E1,E2,E3,E4,E5,E6,
{16}2x-4[8:1],,1-5[8:1],,2,,{24}1,,2,3,4,6,7,8,,,7-5[8:1],,,
{16}5x-1[8:1],,7,,4,,{24}2,,7,6,5,3,4,3,,,Cf,,,
{16}2x>4[8:1],,1<7[8:1],,2-6[8:1],,{24}1-5[8:1],,,2,,,1,,E6,E5,E4,E3,E2,
{16}E1/5x-7[8:1],,4-2[8:1],,5-1[8:1],,{24}4-8[8:1],,,5,,,4,,E1,E8,E7,E6,E5,
{16}3x<6[8:1],,6-2[8:1],,3,,{24}8,,8,7,6,5,4,3,2,1,8-6-1-5[8:3],,,
{16}3x,,8,,3,,{24}4,,3,2,1,8,7,6-1[8:1],,,1-5-2[4:1],,,
{16}6x,,8,,7,,{24}7,,7,6,5,4,3,2,1,8,7,6,5,
{16}4x>5[24:7],,2,,4,,{24},,4,3,2,1,8,7,6,5,4,,,
{16}6x>3[8:1],,3-7[8:1],,6,,{24}1,,1,2,3,4,5,6,7,8,1-3-8-4[8:3],,,
{16}6x,,1,,5,,{24}5,,6,7,8,1,2,3-8[8:1],,,8-4-7[4:1],,,
{16}3x,,1,,2,,{24}2,,2,3,4,5,6,7,8,1,2,3,4,
{16}5x<4[24:7],,7,,5,,{24},,5,6,7,8,1,2,3,4,5,,,
{16}3x,4,2,5,1,6,{24}8,1,2,7,6,5,1,2,3/7,6,5q1[8:1],,,
{16}4x,,3,,2,,{24}2,3,4,8,7,6,1,2,3/7,6,5,,,
{32}3x,,4,,2,,5,,1,,6,5,{24}4,,2,1,2,1,2,1,,,8,7,8,
{32}6x,5,4,,6,5,4,,6,5,4,,{24}2,,2,3,4,5,6,7,,,{48}E7,B6,B5,,{24},
{16}6x,5,7,4,8,3,{24}1,8,7,2,3,4,8,7,6/2,3,4p8[8:1],,,
{16}5x,,6,,7,,{24}7,6,5,1,2,3,8,7,6/2,3,4,,,
{32}6x,,5,,7,,4,,8,,3,,{24}8,,2,1,2,1,2,1,,,8,7,6,
{32}2x,3,4,,2,3,4,,2,3,4,,{24}7,,7,6,5,4,3,2,,,{48}E3,B3,B4,,{24},,
{16},,{64}5x/4x,E6/B5/B4/E4,C,B8/B1/E1,{16},,,,,{64}2-5[8:1]/8x,E8,B7,B6,{16}E6,,,{64}6x-3[8:1],E7,B7,B8,{16}E1,,,,,{64}A2,D2,A1,D1,{16}8x-5[8:1],,,{64}E1,B1,B2,E3,{16},,,{64}4-7[8:1]/2x,E3,B3,B4,{16}E5,,,,,{64}A2,D3,A3,D4,{16}4x>1[8:1],,,,,{64}7x-2[8:1],E7,B6,B5,{16}E5,,,{64}3x,E4,B4,B5,{16}E6,,
{9}8/1,8/1,8/1,8/1,1/8,{54}1/8,,,,,,1/8,,,,,,1/8,2/7,3/6,4/5,,,,{16},,8,7,8,7,1,6,1,6,2,5,2,5,3x,4,
{16}2,5,1,6,8,7,5,6,4,7,3,8,{48}2,3,4,5,,,
{16}1,5,8,4,7,3,6,2,5,3,6,2,6x,1,6,8,6,7,6,5,6,4,6,3,7,2,
{16}2,{48}7,6,5,{16}4,1,4,2,5,3,6,4,6,3,7,4,6,
{16}3,{16}8x,5,6,2,4,3,7,1,6,5,8,2,5,4,7,{16}
{48}3,2,1,{16}8,6,1,6,2,6,3,5,3,4,3,2,3,1,
{16}3,8,3,7,3,{12}6,4,5,2,8-4[8:1],1,6,8>8[8:15],
{24},,{8},,,,,,,,,,,,,,,,,6h[8:3],,,5h[4:1],,4h[4:1],,3h[4:1],,1h[8:3],,,7h[8:14],,,,6<3qq6[8:11],,,,,,,,,,,,,,,7qq4[8:18]/3qq8[8:18],
&inote_6={16}1x,,1,1,,1,1,,1,1,,1,1,,
{16}
