&title=New World
&artist=FELT
&first=0.2
&des=新世界へようこそ
&clock_count=4
&des_1=新世界へようこそ
&des_2=新世界へようこそ
&des_3=新世界へようこそ
&des_4=新世界へようこそ
&lv_6=14
&des_6=我听到啦!
&inote_6=(195)
{1},,
{8}6,6,5,5,7,7,1,1,8,8,2,2,5,5,4,4,7<4[8:2],,4>1[8:2],,1<6[8:2],,6,,2>5[8:2],,5<8[8:2],,8>3[8:2],,3,,6,6,5,7,3,3,5,4,7h[8:1]/5h[8:1],,4h[8:1]/3h[8:1],,8h[8:1]/2h[8:1],,6h[8:1]/5h[8:1],,7,7-4[8:1],,1,1-5[8:1],,8<7<6>5>4>3>2<1[8:8]`8?<1b[8:8],8`Cf,,,,,,,,,
{4}7V51[4:2],7,4,4,3V17[4:2],3,6,4,5<1[4:2],5,2,4,5V37-1[4:3],5,6,4,5V37-1[4:3],5,2,4,5V37-1[4:3],5,8,6,5-7[8:2],5,4-8[8:2],4,3-1[8:2],
{8}3,,8h[8:2],,1,,2,2-4[8:1],,7,7-3[8:1],,2,2-8[8:1],,6,6p4[8:3],,4,,,,3,3-8[8:1],,6,6-4[8:1],,2,2-5[8:1],,7,7,,8q2[8:3],8,3h[8:2],,,,4,4-1[8:1],,7,7-3[8:1],,2p8[4:2],2,,4,5,6,7,,
{16}71,,6,5,6,,82,,3,4,3,,71,,6,5,6x,7,8,1,5x,6,7,8,1x,2,3,4,2x,3,4,5,
{4}2>2[4:3],,6,,7<7[4:3],,3,,4<4[4:3],,8,,5,,8p1[4:2],,3h[8:4],,1q8[8:4],,3h[8:4],,8p1[4:2],,2,,3,,4h[8:4]/5h[8:4],,,,
{8}6h[4:3],,5,,,,5,,3h[4:3],,4,,,,4,,7h[8:6],,5,,,,5,,2p8[8:4],,5,,6h[8:2],,,,7-4[8:1],8,7,2-5[8:1],1,2,8p4[8:1],1,8,2q6[8:1],1,2,8-3[8:1],7-4[8:1],8,7,2,2-5[8:1],,2/7-3[8:1],,7/1w5[8:1],,1b,,,,
(97.5)
{64},,,
(195)
{4},,7b-5[8:1]/4b,3-7[8:1],5-1[8:1],2-5[8:1],8<5[8:1],8>3[8:1],8-4[8:1],8,1>5[4:1],5<1[4:1],1V35[4:1],5V71[4:1],1,5,7-4[8:1]/3-8[8:1],73,
{8}1-5[8:1],1,7-4[8:1],7,2-5[8:1],2,6,6-1[8:1],,2-5[8:1]/6,,2/8w4[8:1],,8<5[8:1]*>3[8:1],,8b,,,
{16}53,,2,2,4,,65,,7,,4/3b,,5b/2,,6,6,4,,53,,5,4,5,4,5,4,5,4,
{8}5-7[8:1],,8-4[8:1],,8/1-3[8:1],,81,,7-4[8:1],,3-8[8:1],,5-1[8:1],,52,,8<5[8:1],,8>3[8:1],,8-5[8:1],,8-3[8:1],,8,,54,,6<1[8:1],5,64,,3,4-8[8:1],,7,6-1[8:1],,2,3-8[8:1],,6,5-1[8:1],,5/2-5[8:1],,12,,
{16}7b/4,,6,6,5,,7<6>5>4>3>2<1[8:3]`7?<1b[8:3],,4,,7,,,,A8/E8/E1/B8f,,,,,,,,,,53,,2,2,4,,5,,6<4[4:3]/4>6[8:6],,,,
{4},,,,D7,D6,D5,E7h[8:1],E6h[8:1],E5h[8:1],E4h[8:1],
{8}7,6,5,4,6,5,4,3,5-1[8:1],5,4,,3-8[8:1],3,7,,6-4[8:1],,86,,8-4[8:1],,87,,7<4[8:1],,8,2,,3,43,43,,65,,5-8[8:1]/4-1[8:1],,,,B7/B2/B6/B3/Cf,,
(97.5)
{64},,,
(195)
{8}6,6,4,4,7,7,5,5,8,8,1,2,8,3,6-4[8:1],6,3-7[8:1],3,6-4[8:1],6,3q5[8:6],3,5,6,7,8,7,7,6,6,5-1[8:1]/2-5[8:1],,52,,8-4[8:1],7-4[8:1],8,7,,2<7[8:1],3,4,5,6>3[8:1],7,8b,,,
{16}83,,2,2,1,,3,,64,,7b/5,,,,7,7,5,,64,,53,,2,,64,,7<2b[4:4],,,,,,,,,,,,,,,,,,
1?p8b[4:3],,,,
{4},,,E5h[4:12],,,,E4,,,,E6,,,,C,,,,A5h[16:55]/A4h[16:57]/D5h[16:59],,,,E8,,,,E2,,,,Ch[16:13],
{16},,,,,,,,,,,,
{24}2,3,4h[24:16],,,,5,,,,,,,,,,,,5,,,,,,7,6,5h[24:16],,,,4,,,,,,,,,,,,4,,,,,,3,4h[24:17],,,,,5,,,,,,,,,,,,5,,,,,,6,5h[24:17],,,,,4,,,,,,,,,,,,4,,,,,,
{8}1,2-5[8:1]/6,,72,8-4[8:1],,8/1,2-5[8:1],,82,7-4[8:1],,7/8-3[8:1],,87,,6-2[8:1],,4,4-1[8:1],,4-7[8:1],,4,,1,28,,6h[8:2]/4h[8:2],,,,7b<4[8:1]/3b,,1q5[8:1],,8p4[8:1],,2>5[8:1],,8-5[8:1],,8-3[8:1],,8-4[8:1],,8,,1V35[8:2],,5V71[8:2],,1>5[8:2],,5<1[8:2],,1,,5,,5-8[8:1]/2-5[8:1],,25,,7-4[8:1],7,3>8[8:1],3,5-1[8:1],5,3,3-8[8:1],,7-3[8:1],,1w5[8:1],,1>4[8:1]*<6[8:1],,1b,,,
{16}64,,7,7,5,,64,,3,,5/2,,3,,64,,7,7,5,,6,4,6,4,6,4,6,4,6b-1[8:1],,,,
{4}1-4[8:1],4-7[8:1],7-2[8:1],2-5[8:1],5-8[8:1],8-3[8:1],3,4x>1[8:1],5/4x<7[8:1],4x-1[8:1]/3,5/4x-7[8:1],4x/3,8,1w5[8:1],1,
{8}73,6-4[8:1],,8/6,1-5[8:1],,71,6-1[8:1],,65,4-1[8:1],,4/7-4[8:1],,78,,1-5[8:1],,6,6<1[8:1],,2,3,4,
{16}6,5,6,,3,4,3,,5,4,5,4,5,4,5,4,
{32}5b<4[4:4],B5,Cf,B1,A1,,,,
{4},,,,,5h[8:2],E5,3h[8:2],E4,6h[8:2],E6,
{16}3,4,3,,6,5,6,,4,5,4,5,4,5,4,5,4>8[8:2],,,,8q5[8:2],,,,6,,,,7,,7b-3[8:1],,,,7/8b-4[8:1],,,,8/1b-5[8:1],,,,1/2b-6[8:1],,,,8b/2b,Cf,,,7,,65,,4,4,5,,3,,24,,1b>5[4:1],,,,7,,7b,,,,56,,7,8,7,8,7,8,7<3[8:2],,,,3>7[8:2],,,,7V53[8:2],,,,3V17[8:2],,,,7,,,,3,,,,6-1[8:1]/5-1[8:1],,,,65,,,,2>6[8:2],,,,1,,,,8V64[8:2],,,,1,,,,2,,43,,6,5,6,,7,,75,,8,1,8,,
{24}1b,2,3,4-8[8:1],,,,,,8b,7,6,5-1[8:1],,,,,,8b,1,2,3-8[8:1],,,,,,8b,7,6,5-1[8:1],,,,,,1bw5[8:1],2,3,4,,,1bx,,,,,,
{8}7,6,53,1,2,3,4,5h[8:3]/7h[8:3],,,,,
{16}84,,8q2[4:29]/4q6[4:29],73,62,51,8b/4b,
E
&des_7=新世界へようこそ
