&title=沢の河城工務店
&artist=Foxtail-Grass Studio
&first=0.2
&des=带风の早餐店
&lv_5=12+
&inote_5=(75)
{8}3h[8:1],5,5,6h[8:1],4,4,2h[8:1],4,4,35,26,17,
6h[8:1],4,4,3h[8:1],5,5,7h[8:1],5,5,64,8,5/3h[8:1],
1<5[8:1],5,3,8>4[8:1],4,6,8qq4[4:1],,8,2h[4:1],,4,
4<8[8:1],8,2,5>1[8:1],1,7,6p4[4:1],,6,1>4[8:1],,17,
8>4[8:1],4,6,1<5[8:1],5,3,1pp5[4:1],,1,7h[4:1],,5,
5>1[8:1],1,7,4<8[8:1],8,2,3q5[4:1],,3,6<1[8:1],,64,
2>4[12:1],5,28,1<5[8:1],,13,4-2[12:1],1,46,7-4[12:1],3,71,
8,5<8[12:1],2>5[12:1],5qq5[4:1],2<4[2:1],,,,,3>8[12:1],,35,
7<5[12:1],4,71,8>4[8:1],,86,5-7[12:1],8,53,2-5[12:1],6,28,
7-5[12:1],2-4[12:1],7-1[12:1],2-6[12:1],7,2,8<5[12:1],3>8[12:1],8,3bpp4[8:1],,1,
{16}
8>3[12:1],,6,6,8,,8<5[12:1],,2,2,8,,1>4[12:1],,5p2[4:1],5,1,,6h[8:1],,,,8,,
7<4[12:1],,1,1,7,,8>3[12:1],,7,7,8,,8<5[12:1],,3-8[12:1]/4-1[12:1],,8,,,,,7,7,,
1<6[12:1],,3,3,1,,1>4[12:1],,7,7,1,,8<5[12:1],,4q7[4:1],4,8,,3h[8:1],,,,1,,
2>5[12:1],,8,8,2,,1<6[12:1],,2,2,1,,1>4[12:1],,7-4[12:1]/5-8[12:1],,1,,,,,1,1,,
5<8[12:1],,8qq4[6:1],,3,,1h[4:1],,,,3,,4-1[12:1],,6,6,4,,8-5[12:1],,3,3,8,,
4<7[12:1],,1>4[12:1],,4,,1<6[12:1],,5p2[4:1],,1,,5,,,,,,8,,1,,64,,
4>1[12:1],,1pp5[6:1],,6,,8h[4:1],,,,6,,5-8[12:1],,3,3,5,,1-4[12:1],,6,6,1,,
5>2[12:1],,8<5[12:1],,5,,8>3[12:1],,4<7[12:1],,8-4[12:1],,4,,8,,6b<2[8:1],,2b>6[8:1],
,,,,,
{8}3h[8:1],5,4,6h[8:1],4,5,2h[8:1],4,3,57,6,5,
6h[8:1],4,5,3h[8:1],5,4,7h[8:1],5,65,4-8[12:1]/2h[4:1],,,
2h[8:1],8,1,7h[8:1],1,8,3h[8:1],1,2,86,1,28,
7h[8:1],1,8,2h[8:1],8,1,6h[8:1],8,78,1-5[12:1]/3h[4:1],,1b,
{16}
2pp3[8:1],,3>8[12:1],4,2,,6pp7[8:1],,7<5[16:1],8,6,,1>4[12:1],,
4,,1,,8>6[6:1],,7h[8:1],,,,
7qq6[8:1],,6<1[12:1],5,7,,3qq2[8:1],,2>4[16:1],1,3,,8<5[12:1],,
4pp8[4:1]/1>4[8:1],,,,,,,2,2,,
7qq6[8:1],,6<1[12:1],5,7,,3qq2[8:1],,2>4[16:1],1,3,,8<5[12:1],,
5,,8,,2h[8:1],,4,3,5,4,
6/2pp3[8:1],,3>8[12:1],4,2,,6pp7[8:1],,7<5[16:1],8,6,,1>4[12:1],,
5qq1[4:1]/8<5[8:1],,,,,,,7,7,,
8-4[12:1],,1,,1,,5-7[12:1],,2,,2,,8-4[12:1],,3,,3,,5<8[12:1],,4,,4,,
1-5[12:1],,8,,8,,4-2[12:1],,7,,7,,1-5[12:1],,6,,6,,4bw8[4:3],
&inote_6=(75)
{8}
2-4[12:1],46,,7-5[12:1],53,,2-4[12:1],35,,8-4[12:1],56,18,
3-1[12:1],17,,6-8[12:1],82,,3-1[12:1],28,,5v7[8:1],28,5b,
2-5[12:1],56,28,7-4[12:1],43,71,2<7[8:1],7q3[8:1]/4<7[8:1],,4>1[12:1],
,8,
7-4[12:1],43,71,2-5[12:1],56,28,7>2[8:1],,47,3q5[6:1],,35,
6-1[12:1],12,64,3-8[12:1],87,35,7>2[8:1],2p6[8:1]/5>2[8:1],,5<8[12:1],
,1,
3-8[12:1],87,35,6-1[12:1],12,64,3<6[8:1],,83,7q1[6:1],,71,
2>5[12:1],6>3[12:1],2,6<1[12:1],2<7[12:1],6,
3<6[12:1],7<4[12:1],3,7>2[12:1],3>8[12:1],7,
3<7[8:1],4p8[8:1],5p1[8:1],6p2[8:1],
{4}7pp3[2:1],,,
{8},17,
7<4[12:1],3<6[12:1],7,3>8[12:1],7>2[12:1],3,
6>3[12:1],2>5[12:1],6,2<7[12:1],6<1[12:1],2,5b,6>3[12:1],1<6[12:1],3>1[12:1],,,
7<4[8:1]/8p3[8:1],3>8[8:1]/4p7[8:1],,,,
{48}1,2,3,4,5,6,
{8}7p4[24:5],2>4[12:1],7,2q4[24:5],7<4[12:1],2,7p5[24:5],2>5[12:1],7,
2V86[8:1],,28,3p8[24:5],6<8[12:1],3,6q8[24:5],3>8[12:1],6,3p1[24:5],6<1[12:1],3,
