&title=AYO WTF?!
&artist=Normal1zer as "Art Of Kickz"
&first=0.091
&des=GET OUTTA MY HOU——
&lv_5=14
&des_5=GET OUTTA MY HOU——
&inote_5=
(160){4},,,,{1}7b>2v4b[2:1],
Cfh[4:3],
{4}5/6h[8:1],5/4h[8:1],5/7h[8:1],5/4h[8:1],
{8}6/5,6,5/4,4,{4}6h[8:1]/7h[8:1],8h[8:1]/1h[8:1],
{8}5/6,6,{4}5/4h[8:1],5/7h[8:1],5/4h[8:1],
{8}7/5,6,5/4,5,4/2,3,{4}4h[8:1]/5h[8:1],
4/3h[8:1],4/5h[8:1],4/2h[8:1],4/5h[8:1],
{8}3/4,3,5/4,5,{4}3h[8:1]/2h[8:1],1h[8:1]/8h[8:1],
{8}4/3,3,{4}4/5h[8:1],4/2h[8:1],4/5h[8:1],
{16}B7/C/B6,,,B2/C/B3,,,{8}B7/C/B6,B2/C/B3,Cfh[4:1],,,4/3,
3,4/5,5,4/2,2,4/5,5,
3/4,3,4/5,5,{16}3,2,{8}3,1/8,8,
5/6,6,5/4,4,5/7,7,5/4,4,
7/5,6,5/4,5,{4}B3/B2/B7/B6/Cfh[8:1],{32}5b/4b,6x/3x,7x/2x,8x/1x,,,,,{8}5x/4x,
6,6,6,5x/4x,3,3,3,
4x/5x,7,7,7,5x/4x,2,2,2,
{16}5x/4x,6,7,8,4x,3,2,1,5x,6,7,8,4x,3,2,1,
{4}Cf,{32}1b/8b,7x/2x,6x/3x,5x/4x,,,,,{2}Ch[4:1],
{8}5h[8:1],4,5h[8:1],4,5h[8:1],{16}4,4,{8}5h[8:1],4,
4h[8:1],5,4h[8:1],5,4h[8:1],{16}5,5,{8}4h[8:1],5,
{16}Cf/B8,B7,B6,B5,Cf/B1,B2,B3,B4,Cf/B8,B7,Cf/B1,B2,{4}Cf/B8,
Cfh[4:3],B7h[2:1]/B2h[2:1],{8},,,,6h[8:1],
5,6h[8:1],7,6h[8:1],5,6h[8:1],7,
4h[8:1],5,4h[8:1],3,4h[8:1],{16}5,5,4,5,{8}4,
6h[8:1],5,6h[8:1],7,6h[8:1],5,6h[8:1],7,
1h[8:1],3h[8:1],5h[8:1],7h[8:1],{4}1h[8:3],8h[8:1],
{8}5h[8:1],{16}4,4,5,4,{8}5,3h[8:1],4,3h[8:1],2,
3h[8:1],4,3h[8:1],2,5h[8:1],{16}4,4,5,4,{8}5,
3h[8:1],4,3h[8:1],2,3h[8:1],4,3h[8:1],2,
8h[8:1],6,{16}1h[8:1],,,3,{8}4/2,5/7,{4}Cf/B7/B2,
{8}4x/5x,3,3,3,4x/5x,6,6,6,
5x/4x,2,2,2,4x/5x,7,7,7,
{16}4x/5x,3,2,1,5x,6,7,8,4x,3,2,1,5x,6,7,8,
{4}Cf,{32}8b/1b,7x/2x,6x/3x,5x/4x,,,,,{2}Ch[4:1],
{8}B7/B6/C,,,B2/B3/C,B7/B6/C,,,C/B2/B3,
B6,B5,B3,B4,B6,B3,{4}1b/8b-6[32:3],
5/8-3[16:1],2/8-6[16:1],{16}5/8-4[16:1],4,{8}3,{4}5/8-6[16:1],
3/8-2[16:1],5/8,{8}7/4,2/5,{16}8/1,8/1,{8}8/1,
1/8-6[16:1],{16}3,4,{8}5/8-3[16:1],3,{16}6/8-6[16:1],5,{8}4,{4}1/8,
{8}8/6,3/1,8/6,1/3,{4}5h[8:1]/4h[8:1],1h[8:1]/8h[8:1],
{8}6b/3b,6b/3b,{4}8b/1b-3[32:3],{8}4/1-6[16:1],{16}6,5,{8}4/1-3[16:1],3,
{4}6/1-5[16:1],8/1-3[16:1],{8}4/1-7[16:1],4,{16}6/1,5,{8}4,
{4}7h[8:1]/5h[8:1],4h[8:1]/2h[8:1],{8}8b/1b,8b/1b,8b/1b,1b/8b,
{32}1b/8b,7/2,6/3,5pp8[0.2344##0.75]/4qq1[0.2344##0.75],{4},,,{16},,{4}8<4[4:1],
4>8[4:1],8<4[4:1],4>8[4:1],
{8}8<4[4:1],8,4>8[4:1],4,{4}8<4[4:1],4,
1>5[4:1],5<1[4:1],1>5[4:1],5<1[4:1],
{8}1>5[4:1],1,5<1[4:1],5,1>5[4:1],1,{4}5,
8V64[4:1],4V28[4:1],8V64[4:1],4V28[4:1],
{8}8V64[4:1],8,4V28[4:1],4,{4}8V64[4:1],4,
1V35[4:1],5V71[4:1],1V35[4:1],5,
B6/B3/C,Ch[4:1]/8>5[8:1],{8},8<3[0.1875##0.1875],,,8/7,
7,8/1,1,8/6,6,8/1,1,
7/8,7,8/1,1,{16}7,6,{8}7,5/4,{16}4,5,
{8}2,2,1/8,8,1/3,3,1/8,8,
3/1,2,1/8,1,{32}1b/8b,7/2,6/3,5-8[0.2344##0.0938]/4-1[0.2344##0.0938],,,,,{4}4b/5b,
{8}1x/8x,2,2,2,1x/8x,7,7,7,
8x/1x,3,3,3,1x/8x,6,6,6,
{16}1x/8x,2,3,4,8x,7,6,5,1x,2,3,4,8x,7,6,5,
{1}Cf,
,,{16}Cf/B5,
B6,B7,B8,Cf/B4,B3,B2,B1,Cf/B5,B6,Cf/B4,B3,{4}Cf/B5,
Cfh[4:3],B7h[2:1]/B2h[2:1],{32},,,,,,,,,,,,,,,,1b/5h[8:1],
2,3,4,,,,,3b/5h[8:1],2,1,8,,,,,1b/5h[8:1],2,3,4,,,,,3b/5h[8:1],2,{16}1,{8}8,
{32}1b/5h[8:1],2,3,4,,,,,3b/5h[8:1],2,1,8,,,,,{8}6b/5b,4b/3b,7b/8b,1b/2b,
{32}8b/4h[8:1],7,6,5,,,,,6b/4h[8:1],7,8,1,,,,,8b/4h[8:1],7,6,5,,,,,6b/4h[8:1],7,{16}8,{8}1,
7b/5b,4b/2b,6b/8b,1b/3b,{4}5bh[8:1]/4bh[8:1],1bh[8:1]/8bh[8:1],
{8}7b/2b,7b/2b,{4}4bh[8:1]/5bh[8:1],{32}2b/7h[8:1],3,4,5,,,,,4b/7h[8:1],3,2,1,,,,,2b/7h[8:1],
3,4,5,,,,,4b/7h[8:1],3,2,1,,,,,2b/7h[32:3],3,4,5,,,,,{8}1b/2b,7b/8b,
{4}3bh[8:1]/4bh[8:1],6bh[8:1]/5bh[8:1],{16}8b,1b,8b,1b,{32}8b/1b,7/2,6/3,5/4,,,,,{8}5h[8:1],
7,{16}4h[8:1],,,2,{8}1/3,8/6,{4}Cf/B6/B3,
{8}1x/8x,2,2,2,1x/8x,7,7,7,
8x/1x,3,3,3,1x/8x,6,6,6,
{16}1x/8x,2,3,4,8x,7,6,5,1x,2,3,4,8x,7,6,5,
{4}Cfh[4:3],B7h[2:1]/B2h[2:1],,,1b/8b-3[16:1],
{24}8b/2b-6[16:1],3,4,5,,,{8}2b/7b-4[16:1],8,7b/2b-6[16:1],3,
2b/5b-1[16:1],4,5b/2b,3,6b/2b,4b/8b,2b/6b,4b/5b,
{4}8b/1b-6[16:1],{8}1b/7b-3[16:1],5b/4b,7b/2b-5[16:1],1,{4}2b/7b,
{8}8bh[8:1],6bh[8:1],4bh[8:1],2bh[8:1],{4}8bh[8:3],1bh[8:1],
{8}5b/4b,5b/4b,{4}4bh[8:1]/5bh[8:1],{32}8b/1b,7,6,5,1,2,3,4,{8}5b/7b,7b/5b,
{4}5bh[8:1]/7bh[8:1],2b/1b-5[16:1],{32}1b/8b,2,3,4,1b,8,7,6,{8}5b/2b-6[0.1875##0.0938],7b/2b,
8b/1b,8b/1b,{4}1bh[8:1]/8bh[8:1],{32}1b/8b,2,3,4,8,7,6,5,{8}4b/2b,5bx/7bx,
{4}Cfh[4:3],B7h[2:1]/B2h[2:1],{32},,,,,,,,,,,,,,,,8b/1b,
7b/2b,6b/3b,5b/4b,
E
