&title=Brightly horizon
&artist=中恵光城
&first=0.02
&clock_count=4
&lv_5=13
&des_5=千万不要买17块的以撒,有病毒,我有个光头朋友买了之后得了普通感冒贫血眼球突出复视毒性休克溢泪症宽瞳肾结石毒牙静脉曲张复杂性骨折多指畸形鼻窦炎青光眼传染病抑郁症大青春痘精神错乱麻风病泪血症食泪症脆骨症毛霉菌病小畸胎瘤血管炎眼瘤水土不服症骨刺高凝血大肠激躁症咳血症麦粒肿
&inote_5=
(178){4},{8},,1bx/8bx,7,5,4,
{4}2,8/1,7/5,2/4,
{8}1/7-3[4:1],,,4,{4}4qq6[2:1],6b,
,,1x/6xh[4:1],5h[4:1],
4h[4:1],3pp4[16:5],{8},8,{4}8V62[32:9],
{2}5h[2:1],{4}1,3/7,
5/2,3/4<7[8:1],2,8/1,
6/5>2[8:1],7,{8}8/1,7,{4}5/6<1[8:1],
1,{8}3,5,4,6,{4}7/2<7[32:5],
{2}6>3[32:5],{8}2,2,8,8,
4>1[32:5],5,{4}6V48[8:3],{2}2h[2:1],
{4}7h[4:1],5h[4:1],{8}4,4,{4}2h[4:1],
4h[4:1],{8}5,5,{2}7bx<1[4:3],
{8},,,,,,4,4,
{4}5,{8}3,2,7,6,{4}5h[2:1]/4h[2:1],
,,{2}7b/2bh[4:9],
{4},A1/B1,,,A8/B8,
,,A7/B7,
,,{2}7h[4:9],
{4},B2/A2,,,B1/A1,
,,8q1[2:1],
,,{2}5h[4:9],
{4},D2/E2,,,D1/E1,
,,D8/E8,
,,{2}4h[2:3],
{4},D2/E2,,,D8/E8,
{8}5/6,7,1/8,2,{4}3/4-8[8:1],
4/1w5[8:1],1,7/3x>8[4:1],6,
5,8/4<7[4:1],1,2,
3h[4:1],{8}5,4,{4}6<1[4:1],2,
3,4,{2}3qq1[4:1]/7qq5[4:1],
{4},6pp8[4:1]/2pp4[4:1],,,1>4[4:1],
4<7[4:1],7,8,
{8}1/3,4,6/5,7,{4}4/8qq7[4:1],{8}1,2,
{4}3-5[8:1],8h[4:1],6,4,
7/1pp2[4:1],{8}8,7,{4}6-3[8:1],1h[4:1],
5,{8}2,3,{4}6/4>2[8:1],8<6[8:1],
4>1[8:1],8<5[8:1],4>1[8:1],8pp5[2:1]*qq3[2:1],
8b,,,3<6[4:1],
6<1[4:1],1>4[4:1],{32}6xq4b[2:1],5xqq3b[32:15],{4},,,{16},,,{8}8/1,
2,3x/5x,6,
{4}7b/8b,{8}1>4[8:1],4,{4}1,6q3[16:3],
3,5<8[8:1]*>2[8:1],{8}5qq5b[16:5],,,7,
{4}6-2[8:1]*-1[8:1],6b,7/4,5>2[8:1],
8x/5x,{8}6,5,{4}4<7[8:1]/1>4[8:1],1/4qq5b[8:3],
{8},7,{4}7V51[4:1],8/7,{8}2,3,
{4}8/4V25-1[2:1],7-1-6b[4:1],,,6bx/2bx,
{8}7<4[8:1],1,{4}7,2>5[8:1],
{8}2/8,7,{4}6pp3[8:3],{8}6/4,,,2,
{4}1-5[8:1],1/5<2[4:1],{8},,7,7,
{4}8x/5xV38[4:1],{8}8,7,{4}6V47[4:1],8/6,
{8}1,2,{4}3>8[8:1]*<6[8:1],{2}3pp2b[8:3],
{4}7-3[8:1],{8}7b,1,2,3,4x,5,
{4}2b/6b,{8}6q3[16:3],3,{4}6,5>2[8:1],
1,8<5[8:1]*>3[8:1],{8}8qq1b[8:3],,,1,
{4}2-6[8:1]*-5[8:1],2b,4/7,3/5<8[8:1],
5x/1x,{8}2,3,{4}7<4[8:1]/4>1[8:1],7/4pp5b[4:1],
{8},1,{4}1V37[4:1],1/7,{8}4,5,
{4}8/6-4-7-3[2:1],1V38b[4:1],,,5bx/1bx,
{8}7<4[8:1],8,7,1,{4}2>5[8:1],
{8}2/1,8,{4}8p3[8:1],{2}8/3<8[4:1],
{8}2,3,{4}1/4qq1[16:7],{8},,8,8,
{4}7xh[4:1],{8}2,2,6/5h[8:1],6,2/4h[8:1],2,
6/5,7,{4}3>8[8:1]/8<5[8:1],3bx/8bx,{8}6/1h[8:1],6,
3/4h[8:1],3,{4}7x/1x>7[4:1],{8},8,{4}8w4[8:1],
{2}8bxqq4[2:1],{8}2,2,{4}3h[4:1],
{8},,6,7,8bx/1bx,2,3,5,
{4}4,7/5,8/1,4/2,
{8}8/3qq4[2:1],,,6h[8:1],,5,{4}5pp5[8:3],
4,3,2xh[4:1],3h[4:1],
4h[4:1],6qq5[4:1],{8},1,{4}1>4[8:1],
5<1[16:3],5,5>7[4:1],{8}7,6,
{4}5-2[8:1]*-8[8:1],5,{8}7xh[8:1],3h[8:1],6h[8:1],4h[8:1],
{4}5<1[16:3],8,2,6/4>8[16:3],
1h[8:1],7h[8:1],6h[8:1],5qq3[16:3]*<8[16:3],
{16},,,,,,3,8,{8}4,7,5,6,
{4}6<3[4:1],3,{8}4,5,6,3,
{4}3xqq4[8:3],6,{8}7,7,{4}6xpp5[8:3],
4,3,{2}4bqq5<8b[1:2]/6bpp5>2b[1:2],
E
&lv_6=
&des_6=千万不要买17块的以撒,有病毒,我有个光头朋友买了之后得了普通感冒贫血眼球突出复视毒性休克溢泪症宽瞳肾结石毒牙静脉曲张复杂性骨折多指畸形鼻窦炎青光眼传染病抑郁症大青春痘精神错乱麻风病泪血症食泪症脆骨症毛霉菌病小畸胎瘤血管炎眼瘤水土不服症骨刺高凝血大肠激躁症咳血症麦粒肿
&inote_6=
(178){4},
E
