&title=MOTTAI
&artist=真岛ゆろ
&first=-0.003
&des=aycp
&lv_5=11+
&des_5=aycp
&inote_5=
(144){4},{8},,,4,,3,
,2,,1,,5,,6,
,7,,8,,6/3,,4/5,
,3/6,,7/2,,1/8,,2,
,7,,3,,6,,4,
,5,,6,,6/5,,6/4,
,6/3,,3,,3/4,,3/5,
,3/6,,3,,1-5[4:1],,1<6[4:1],
,1>4[4:1],,1x,,5,,6/4,
,5-1[4:1],5,E4,E3,2,2,8,
8<5[4:1],8,E2,E3,,2/8,,1-5[4:1],
,8/1,7,8,4,3/7,4,5,
6,7s3[4:1],{16},,B5,C,{8}B1,2>5[4:1],,2,
,6<4[8:7],5,5,{4}5h[8:1],{8}5,5,
{2}5h[8:1],{8}5,4-8[4:1],,4x,
,4,3,2,1,8-4[4:1],,8-5[4:1],
,8-3[4:1],,8bx,,7,,7-2[4:1],
3,7,,3-6[4:1],7,3,,8<5[4:1],
1,8,,1>4[4:1],8,5,6,7,
8,4,3,2,1,5/4,3,6,
2/7,8w4[8:1],8,8x,,3/4,4,6/5,
5,1/2,2,8/7,7,4/3,4/3,7/8,
7/8,6/5,2/1,7x/2x,,8h[4:1],1,2h[4:1],
7,6h[4:1],{4}3,{8}4h[8:1],5h[8:1],3h[8:1],6h[8:1],
2h[8:1],7h[8:1],,C,,3h[2:1],{16},,,,6x,
6x,{8}6x>3[8:1],,C,,2h[2:1],{16},,,,7x,
7x,{8}7x>2[8:1],,C,,1h[2:1],{16},,,,8x,
8x,{8}8x<5[8:1],,C,,1-5[8:1],1,8-4[8:1],
8,1w5[8:1],1,1x,,7/5,,7/4,
,7/3,,7/2,,7/1,,2/4,
,2/5,,2/6,,2/7,,2/8,
,6/8,,1/3,,2/7,5/4,6/3,
{16}4,5,4,5,,,{8}3b/7x,,1h[8:3]/8h[8:3],,,,5/4qq4[8:1]*pp4[8:1],
{4}4,{16},,6b,5,{8}6,{16}3b,4,
{8}3,{16}7b,8,{8}7,{16}2bx,1,{8}2,5<2[8:5],,4,
3,4,3,4,,1>5[8:3],1,1x,
B8/E8/B7,B6/E6/B5,{16},,B8,C,{8}B4,1h[4:1],,,2/6,
3,5,4,5/3,{16}6,5,{8}7,{16}3,4,
{8}2,{16}8,1,{8}8,{16}3,6,{8}3,4/5h[8:5],3,2,
1,2,{16}3,,,C,,,{8}5/4h[16:11],6,7,
8,{16}7x,7x,,,,,,,4x,5x,4x,5x,{8}4bxqq4[8:3]*pp4[8:3],
,4bx,{16},,,,,,5x,4x,5x,4x,{8}5bxpp5[8:3]*qq5[8:3],
,5bx,,,,2/7,4/5,3qq5[8:3]/6pp4[8:3],
3/6,,,,,3/6,1/8,2pp8[8:3]/7qq1[8:3],
2/7,{16},,,,,,,,8x,1x,8x,1x,{8}8bxqq8[8:3]*pp8[8:3],
,8bx,{16},,,,,,2x,1x,2x,1x,{8}2bxqq2[8:3]*pp2[8:3],
,2bx,,,,2/7,4/5,3qq5[8:3]/6pp4[8:3],
3/6,,,,,3/6,1/8,2pp8[8:3]/7qq1[8:3],
2/7,,,,,4/6,5/3,6/2,
3/7,{16}1,8,2,7,{8}3h[8:1],,6h[8:1],,1,
1,7<4[8:1],{4}7,{8},3h[8:1],,8,
8,2>5[8:1],{4}2,{8},7,8,4,
5-8-4-1[4:1],,,,,5xqq5pp5[8:5],5x,5x,
{4}1h[8:1],{8}2,3,4,6h[8:1],5h[8:1],7h[8:1],
4h[8:1],8h[8:1],{4}3h[8:1],{8},3h[8:1],4h[8:1],2h[8:1],
5h[8:1],1h[8:1],{4}6h[8:1],{8}8,7,6,5,
4,3b,,,,6h[2:1],{16},,,,1x,
1x,{8}1x-4[8:1],,B7/E7/B6,,4/3,3/4,5/6,
5/6,7/2,,2/6,1/7,8-4[16:5],8,1,
2,3,,4/5,6/3,2/7,8/1,2h[8:1]/7h[8:1],
,6/3,{4}4/5,{16}4x,4x,{8}4x-8[4:1],,5,
6,7,6,5,4,3/5,3/6,3/7,
3/6,3/5,,7,2,6/5,7/4,8/3,
1/2,C,,5/4,3/6,7/2,1/8,7h[8:1]/2h[8:1],
,3/6,{4}4h[8:1]/5h[8:1],{8},4/5<8-5[2:1],,4,
,4,,4,,5/4>1-4[2:1],,5,
,5,,5,,3/4<7v4[2:1],,3,
,3,,3,,6/5>2v5[2:1],,6,
,6,,6,,3h[4:1],4,5,
,6h[4:1],5,4,,1h[4:1],8,7,
,8h[4:1],1,2,5,4,6,3,
7,2,8,1h[8:1],,7x/5x,7x/5x,2x/4x,
2x/4x,3b/6b,,,,8h[8:3]/1h[8:3],,,,4/5pp5[8:1]*qq5[8:1],
{4}5,{16},,3bx,4x,{8}3x,{16}6bx,5x,
{8}6x,{16}2bx,1x,{8}2x,{16}7bx,8x,{8}7x,4>7[8:5],,5,
6,5,6,5,,8<4[8:3],8,8x,
B1/E2/B2,B3/E4/B4,{16},,B1,C,{8}B5,8h[4:1],,,7/3,
6,4,5,4/6,{16}3x,4x,{8}2x,{16}6x,5x,
{8}7x,{16}1x,8x,{8}1x,{16}6x,3x,{8}6x,5/4h[8:5],6,7,
8,7,{16}6,,,C,,,{8}4/5h[16:11],3,2,
1,{16}2x,2x,,,,,,,6x,5x,6x,5x,{8}6bxqq6[8:3]*pp6[8:3],
,6bx,{16},,,,,,3x,4x,3x,4x,{8}3bxqq3[8:3]*pp3[8:3],
,3bx,,,,7/2,5/4,6pp4[8:3]/3qq5[8:3],
6/3,,,,,6/3,8/1,7qq1[8:3]/2pp8[8:3],
7/2,{16},,,,,,,,2x,1x,2x,1x,{8}2bxpp2[8:3]*qq2[8:3],
,2bx,{16},,,,,,7x,8x,7x,8x,{8}7bxpp7[8:3]*qq7[8:3],
,7bx,,,,7/2,5/4,6pp4[8:3]/3qq5[8:3],
6/3,,,,,6/3,8/1,7qq1[8:3]/2pp8[8:3],
7/2,,,,,4,,3/5,
,4-8[4:1],4,E6/B5,E7/D7,7,7,1,
1>4[4:1],1,E8/B8,E7/D7,,7/1,,8-4[4:1],
,1/8,2,1,5,6/2,5,4,
3,2z6[4:1],{16},,B4,C,{8}B8,7<4[4:1],,7,
,3>5[8:7],4,4,{4}4h[8:1],{8}4,4,
{2}4h[8:1],{8}4,5-1[4:1],,5x,
,5,6,7,8,1b-5[4:1],,1b-4[4:1],
,1b-6[4:1],,1bx,
E
