&title=夢花火
&artist=豚乙女
&first=0.02
&des=毛花火
&lv_5=14+
&des_5=毛花火
&inote_5=
(186){4},{8},,,,,,2b-4[8:1],
4,2,5b,2b-5[8:1],5,2,6b,
2b-6[8:1],6b,2b,7b,2bv7[8:1],7,2b,8,
6b-1[8:1],5,6,4b,3b-8[8:1],4,3,5b,
4bv1[8:1],5b,4b,8b,8/1,{64}2b,3b,{32}4b,{64},,,,7b,6b,{32}5b,,,,,,,{8}3b-5[8:1],
3,7-1[8:1],7b,4b-6[8:1],4,8-2[8:1],8b,
5b-1[8:1],5b,6b-2[8:1],6b,7b-3[8:1],7,8b-4[8:1],8,
{16}4b,3,2,1,8,7,6b,5,1b,8,7,6,5,4,3b,2,
{32}5b,4,3,2,1b,8,7,6,5b-1[8:1]*-2[8:1],4,3,2,1b,8,7,6,{4}5b,{48}1b/2b,3b,4b,5b,,,,,,,,,{8}7/8,
{16}7,8,{8}7,8,8/5,6/1,7/2,8/3,
1-3[8:1],3V51[4:1],1,4,{4}1-6[8:1]*-4[8:1],1,
{8}2/1,{16}2,1,{8}2,2,2/4,2/4,3/5,3/5,
6>3[8:1],{24}3-7[8:1],2,1,{8}8,2,3,{64}1b,8b,,,,,,,2b,3b,{32}4b,{64},,,,8b,7b,6b,5b,,,,,{8}2/1,
{16}2,1,{8}2,1,1/4,3/8,2/7,1/6,
8-6[8:1],6V48[4:1],8,5,{4}8-3[8:1]*-5[8:1],8,
{8}7/8,{16}7,8,{8}7,7,7/5,7/5,6/4,6/4,
5/3,{24}5,4,6,{8}5,7,{24}1,2,3,5,6,7,{32}2,3,4,5,8,7,6,5,
{8}4b/8b,{16}8,1,{8}2b/4b,{16}4,5,{2}6b/2b,
{8}8b/4b,{16}8,7,{8}6b/2b,{16}2,3,{2}4b/8b,
{8}7b/4b,{16}7,6,{8}5b/8b,{16}8,7,{8}6b/1b,{16}1,8,{8}7b/2b,{16}2,1,
{8}8b/3b-8[8:1],8b>3[8:1],3b-6[8:1],6b>3[8:1],{2}7b,
{16}7b,6,8,1,6b,5,1,2,{2}4b/3b,
{16}2b,3,1,8,3b,4,8,7,{2}6b/5b,
{16}7b,1,5,2,8b,4,7,1,5b,2,8,4,7b,1,4,3,
4b,4,4,4,4,4,4,4,4b,5b,4b,6b,4b,7b,4b,8b,
{8}1/4,{16}2,4,{8}1>4[8:1],8,{32}4,5,6,7,{8}8,1,1,
2-7[8:1],7V13[8:1],2/4w8[8:1],5,{4}4,{32}8b/1b,7/2,{16}6/3,,,{8}8/5,
{16}7,5,{8}8<5[8:1],1,{32}5,4,3,2,{8}1,8,8,
7-3[8:1],3,7v1[8:1]/2-6[8:1],1,{4}2/7,{32}1b/2b,8/3,{16}7/4,,,{8}6/5,
{24}5,6,4,{8}5<8[8:1],2,{32}1,2,3,4,{8}5,8,1,
5-2[8:1],2-5[8:1],5v8[8:1],8v3[8:1],{4}1w5[8:1],1,
{8}8,{32}8-4[8:1],7/1,6/2,5/3,{8}4-8[8:1],8-5[8:1],5-8[8:1],3,2,1,
1b-6[8:1],6b<1[8:1],1b>4[8:1]/5bp8[8:1],4b,{4}5b<1[8:1],{32}1b,2b,3b,4b,{8}5b,
8b-6[8:1],5b,8b,5b,8bv3[8:1],5,8,5,
1bv6[8:1],4b,1b,4b,1b-3[8:1],4,1,4,
6b-8[8:1],5b-1[8:1],6b,5b,8b-4[8:1],1b-3[8:1],8b,1b,
4bv7[8:1],3b-8[8:1],4b,3b,7b,{64}1b,2b,{32}3b,{64},,,,8b,7b,{32}6b,{64},,,,2b,3b,{32}4b,,,{8}8b<5[8:1],
4b,8b>3[8:1],4b,8b-4[8:1],4,8,3,
1b>4[8:1],5b,1b<6[8:1],5b,1b-5[8:1],5,1,6,
{16}3b,4,3b,4,2b,5,2b,5,1b,6,8b,7,1,6,8,7,
5b,6,5b,6,4b,7,4b,7,3b,8,2b,1,3b,8,2b,1,
3b,4,5,6,7,8,1,2,{32}3/7,6,5,4,3,2,1,8,7,6,5,4,3,2,1,8,
{16}7b,3,6b,2,5b,1,4b,8,3b,7,4b,8,5b,1,6b,2,
7b,3,8b,4,1b,5,{8}2b,{48}2bw6[8:1],1b/3b,8b/4b,7b/5b,{12}6b,,{4}2b,
{48}1b,2,3,4,,,,,,6b,7,8,{8}1,{48}3b,4,5,6,{96},,,,{32}1bv6[8:1]*v4[8:1],2,3,4,5,6,7,8,{4}1b,
{48}8b,7,6,5,,,,,,3b,2,1,{8}8,{48}6b,5,4,3,{96},,,,{32}8bv3[8:1]*v5[8:1],7,6,5,4,3,2,1,{4}8b,
1b-6[8:1],{8}1b/7b-4[8:1],7b,,3bV52[4:1],,5b,
,7b<4[8:1],8b,{16}7b/4,3,{32}2b-7[8:1]*v5[8:1],1,8,7,6,5,4,3,{4}2b,
{8}5b>2[8:1],6,7b,8b<5[8:1],1,2b,3b>8[8:1],4b,
5,6b>3[8:1],7b,8b,1-7[8:1],2-6[8:1],1b,2,
4b-8[8:1],3,4b,2b-6[8:1],1,2b,8b,7b,
{32}2bv5[8:1]/6bv1[8:1],3,4,5,6,7,8,1,{4}2b/6b,{32}1b/5b,8b/4b,7b/3b,6b/2b,{96},,,,,,,,,,,,{48}7b/2b,6b/3b,{24}5b/4b,{48},,,,,,,,5b,
6,7,8,,,,,,2b,3,4,{8}5,{48}7b,8,1,2,{96},,,,{32}5bpp7[8:1]*qq3[8:1],6,7,8,1,2,3,4,{4}5b,
{48}4b,3,2,1,,,,,,7b,6,5,{8}4,{48}2b,1,8,7,{96},,,,{32}4bqq2[8:1]*pp6[8:1],3,2,1,8,7,6,5,{4}4b,
5bV74[4:1],{8}4bV61[8:3],3b,,1bV37[4:1],,3b,
,4b-1[8:1],5b,{16}4b/8,7,{32}6bv1[8:1]*-3[8:1],5,4,3,2,1,8,7,{4}6b,
{8}8b-5[8:1],5,4b,3b-6[8:1],2,1b,8b-3[8:1],7b,
6,5b-2[8:1],4b,3b,4-6[8:1],3-7[8:1],4b,3,
8b-3[8:1],3,8b,2b-5[8:1],5,2b,6b,7b,
{16}8b,7,6,5,3,2,1,8,{32}7-4[8:1]*-2[8:1],6,5,4,3,2,1,8,{4}7,
{8}1b-3[8:1],3,1,4b,1b>4[8:1],4,1,5b,
1bq5[8:1],5b,1b,6b,1b-6[8:1],6,1b,7,
8bq4[8:1],4,8,3b,2bq6[8:1],6,2,7b,
8bp4[8:1],4b,8b,3b,2/1,{64}2b,3b,{32}4b,{64},,,,1b,8b,{32}7b,,,,,,,{8}6b>4[8:1],
6,2<8[8:1],2b,5b>3[8:1],5,1<7[8:1],1b,
4b-8[8:1],4b,3b-7[8:1],3b,2b-6[8:1],2,1b-5[8:1],1,
{16}5b,6,7,8,1,2,3b,4,8b,1,2,3,4,5,6b,7,
{32}4b,5,6,7,8b,1,2,3,4b-8[8:1]*-7[8:1],5,6,7,8b,1,2,3,{4}4b,{48}8b/7b,6b,5b,4b,,,,,,,,,{8}5/2-5[8:1],
{16}3,4,{8}2,8,{32}8/5,7/4,{16}6/3,{8}2,1,1,
{16}7v4[8:1],8,6,8,{8}7,1,{16}2v5[8:1],1,3,1,{8}2,8,
4/7-4[8:1],{16}6,5,{8}7,1,{32}1/4,2/5,{16}3/6,{8}7,8,8,
{16}3v8[8:1],4,2,4,{8}3,5,{16}6v1[8:1],5,7,5,{8}6,4,
5/4s8[8:1],{16}2/7,6/3,{8}5/4,5,{32}8/1,7/2,{16}6/3,{8}4,5,6,
{16}1/5,2/6,3/7,8/4,{8}5/1,1/5,{16}5/1,4/8,3/7,2/6,{8}1/5,1/5,
{16}2/6,3/7,4/8,5/1,{8}2/6,2/6,{16}3/7,2/6,1/5,8/4,{8}7/3,7/3,
{16}8/4,1/5,2/6,3/7,{32}4/8,1,2,3,4,5,6,7,{16}8/4,3/7,2/6,1/5,{32}8/4,7,6,5,4,3,2,1,
{8}7b-5[8:1],5b-1[8:1],7b,3b,2bV48[4:1],4b,2b,5b,
7b-4[8:1],1b,7b,2b,{48}8b/1b,7b/2b,6b/3b,5b/4b,,,,,,,,,8b/1b,7b/2b,6b/3b,5b/4b,,,,,,,,,{4}1>4[8:1]/5<8[8:1],
5p1[8:1]/1p5[8:1],1>4[8:1]/5<8[8:1],5-2[8:1]/1-6[8:1],
1-5[8:1]/5-1[8:1],5/1w5[8:1],{2}1b,
{48}8b,7,6,5,,,,,,4b,3,2,{8}1,{48}7b,8,1,2,{96},,,,{32}4bp8[8:1]*q8[8:1],3,2,1,8,7,6,5,{4}4b,
{48}1b,2,3,4,,,,,,5b,6,7,{8}8,{48}2b,1,8,7,{96},,,,{32}5bq1[8:1]*p1[8:1],6,7,8,1,2,3,4,{4}5b,
1bV38[4:1],{8}8bv5[8:3],7b,,5bV37[4:1],,6b,
,5bv6[8:1],6b,{16}5b/4,3,{32}2bv7[8:1]*v4[8:1],1,8,7,6,5,4,3,{4}2b,
{8}8b-3[8:1],3,8b,1b-6[8:1],6,1b,7b-4[8:1],4b,
7,2b-5[8:1],5b,2b,8-4[8:1],3-1[8:1],8b,3,
7bv4[8:1],4V61[8:1],7b,2b,3V17[8:1],5b,3b,5b,
{32}8bv3[8:1]/4bv7[8:1],1,2,3,4,5,6,7,{4}8b/4b,{32}3b/7b,2b/6b,1b/5b,8b/4b,{96},,,,,,,,,,,,{48}1b/8b,2b/7b,{24}3b/6b,{96},,,,,,,,,,,,,,,,{32}7b/2h,
6,5,4,3,2,1,8,7b/3h,6,5,4,3,2,1,8,7b/4h,6,5,4,3,2,1,8,7b/3h,6,5,4,3,2,1,8,
3b/7h,4,5,6,7,8,1,2,3b/8h,4,5,6,7,8,1,2,3b/7h,4,5,6,7,8,1,2,3b/6h,4,5,6,7,8,1,2,
5b,4,3,2,1,8,7,6,5b,4,3,2,1,8,7,6,1b,2,3,4,5,6,7,8,1b,2,3,4,5,6,7,8,
1b/5,2/6,3/7,4/8,1,2,3,4,5/1b,6/2,7/3,8/4,1,2,3,4,1b/5,2/6,3/7,4/8,1,2,3,4,5/1b,6/2,7/3,8/4,1,2,3,4,
{8}8b-3[8:1],3,8b,4b-7[8:1],7,4b,3bv8[8:1],8b,
3,7bv4[8:1],4b,7b,1-3[8:1],5-1[8:1],1b,5,
3b<6[8:1],6,3b,7b>2[8:1],2,7b,5b,4b,
{24}3b,4,5,2,3,4,1,2,3,8,1,2,7,8,1,6,7,8,5,6,7,4,5,6,
{8}1b-3[8:1],8-4[8:1],1,8b,3b-7[8:1],4-6[8:1],3,4b,
7b-1[8:1],6b-2[8:1],7b,6b,1b-5[8:1],2-4[8:1],1b,2,
8b-2[8:1],4-6[8:1],8,4b,1b>4[8:1],5<8[8:1],1,5b,
4bV28[8:1],8b,4b,7b,8/7,{64}7b,6b,{32}5b,{64},,,,8b,1b,{32}2b,,,,,,,{16}5b,
2,4,3,5,2,4b,3,7b,4,6,5,7,4,6b,5,
1b,2,1b,2,8b,3,8b,3,7b,4,7,4,{32}6b,5,6,5,6,5,6,5,
{16}6b,5,4,3,2,1,8b,7,6b/3b,4,5,6,7,8,1b,2,
{32}3b/7b,6,5,4,3b,2,1,8,3b-8[8:1]/7bv4[8:1],4,5,6,7b,8,1,2,{2}3b/7b,
E
