&title=Heavenly Me
&artist=理名/塞壬唱片-MSR
&first=0.03
&des=Yoshino
&lv_5=13+
&inote_5=(135){1},{4},,,
{64}Ch[32:5]/1hx[32:5],,,,,,,,,,,B1,E2,B2,E3,B3,{8}4hx[1:1],,,,,,,,
{32}5,6h[32:31],,,,,,,,,,,{8},,,2,2,2h[8:5],,,,,7,
{16}1,8,1,8,1b,,8-4[8:1],8,,,1,,,,
{16}2x,,2,4,,4,3h[4:1],,,5,5,,4h[4:1],,,,6,6,,5,,,
{16}7,8,7,8,,6,6,4,4,,5pp1[8:3],,3,2x,2hx[16:21],,
{8},,,,,E1,E8,E7,E6,{16},4<1[16:5],,,3h[8:3],,,,,,,,,,
{16}4,,E1,,2,2,,E7,3,,E8,,2,,E6,,E4,,7,,E2,,5,5,E3,,8,,
{4}5/7h[4:1],{64}6h[2:1],,,,,,,,,,,,,,,,B6,B5,,,,,,,,,,,,,,,
{64}5h[1:1],,,,,,,,,,,,,,,,B5,B4,,,,,,,,,,,,,,,{4}4b-8[16:3]b,,
{8},8x,16,27,3-8[8:1]/8,4,3/8>3[8:1],7-1-6[4:1],,,
{16}B2,,B5,,4x/7x,,6<1[8:1],5,,5,6,,,,
{8}23,14,5h[4:1]/8,6,7h[4:1],6,5h[4:1],,
{16}8,,47,,36,,2b/5b,,3>8[8:1],4,,4,3,,,,
{16}4,,26,,4/8h[4:1],,5-1[8:1],,5,,6-8[8:1],,6,,,,
{16}2h[8:1],,3h[8:1],,4>1[8:1],,5,,6h[16:3],,,,8,,,,
{16}7qq5[4:1]/8h[8:1],,,,5-2<7[8:3],,,,4,,4hx[4:1],,,,,,
{16}2-6[8:1],,5,,2-4-8[4:1],,7,,2,,,5,5,,,,
{8}34,2,34,5h[8:1],4h[8:1],6h[8:1],7>2[8:1],,,,25,2>5[8:1]/5-2[8:1],,,,,
{8}14,8,57,6-2[8:1],6,4-8[8:1],4,,5,6,7h[8:1]/1,8b,{16}6-2[8:1],6,,,5,,,,
{8}1x,83,72,6-1[8:1]/1,5,6/1-6[8:1],2-8-3[4:1],,,
{16}B7,,B4,,5x/2x,,3v8[8:1],4,,4,3,,,,
{8}76,85,4h[4:1]/1,3,2h[4:1],3,4h[4:1],,
{16}1,,52,,63,,7b/4b,,6v1[8:1],5,,5,6,,,,
{16}4-8[8:1],,,,4bq5<4[8:15],,{1},,Ch[1:1],{4}8h[4:3],,,1,
{16}2h[8:1],,4h[8:1],,3,4,,5,5,,6,,6h[4:1],,,,
{16}8,8,6,,1,7,,2,2,,8,,8h[4:1],,,,
{16}3,1,3,8,3,7,,,4,6,4,6,4,6,,5,7,,7,1,,4,3h[8:3],,,,B3/B4/E4,,B3/B4/E4,,,,
{16}2x,3x,4x,5x,6xp2[8:1],,,,8,,1,,3x,1,3,1,2,8,2,8,1,7,1,7,8-4[8:1],6,8,6,
{4}8b<8-2-4-6-8[8:27],Ch[8:11],,,,,,,Ch[8:13],,,,,,,{16},,28,,7,5,,6,
{16}4>1>4[2:1],,,1h[1:0],,,8h[1:0],,,7h[1:0],,,6h[1:0],,,,
{16}5<8<5[2:1],,,8h[1:0],,,1h[1:0],,,2h[1:0],,,3h[1:0],,,,
{16}4h[1:0]/6h[32:1],,,3h[32:1]/5h[1:0],,,4h[1:0]/5h[1:0],,,,
{16}42,,3,5,4h[8:1],,7h[16:3],,,6h[16:3],,,5h[8:1],,,,34,,4-8[8:1]/5,,,,
{16}4b-2-5-1-6-8[4:7]b,,,,{8},,,,,,,,,,,,,,
{1}Ch[4:7],{16}A1,,,,A8,,,,A7,,,,A6,,,,5,5,,3,,8,8,,,,
{8}1,8-4[8:1]b,1>4[8:1]b,8<5[8:1],1-5[8:1],8,1,,{16}6qq8[16:5],,5,,4,,3bx,,2,2,,1,1-6[8:1],,,,
{8}12,3,4,5-8[8:1],5,7,7-5-3[4:1],,8,1,2,{16}2hb[8:3]/3b,,1x-5[8:1],1x,,,1,,,,
{8}3-8[8:1],4-7[8:1],3,4,1,2,7h[4:1]/3h[8:3],,,,6h[8:3],4h[8:5],,,5h[4:1],,
{48},E4/E6,B3/B6,B2/B7,E2/E8,E1,{8}1hx[8:1]/8hx[8:1],,2-7[8:1],7-5-1[4:1],5h[8:3],,,,2,3,
{16}4b/6b,,5b-2[8:1]b,5b,,4b,4b-7[8:1]b,,,,5hb[4:1],,,,{48}8x-5[8:9],1x-4[48:53],,,,,
{4},,,,,,,,4p5[1:1]/5q4[1:1],,,,,,3-7[1:1]/6-2[1:1],,,,,,,,1p4[4:5]/8q5[4:5],,,,,,,,
{16}4,5,3,5,2,5,1,,7p3p7[4:5]/Cf,,,,,,1x,,1x,,A2,B2,C,,B5,,
{16}4x,,A3,D3,,,E2,,A1f,,{32}8xp4p8[16:15],7x,{16}6x,,B7,B6,B5,E5,,4x,4x,,A3,E3,B2,,,
{32}3x,2x,{16}1x,,C,,,A7,A6,A5,A4,A3,A2,A1,,8bx,,,,7x,7x,6x,6x,5x,,,,,,3x/4xp8p4[8:6],,E4f,,
{32}3x,2x,{16}1x,,,1x,,B2,,,B3,,,B4,,5hbx[16:3],,{32}6x,7x,{16}8x,,4x,1x,4x,
{4}1hx[2:1],,2hb[2:1],,{8}3h[2:1],,,,4bh[2:1],,,,{8}6h[8:1],5,3h[8:1],4,7hb[8:1],5,2h[8:1],4,
{16}3,5,3,5,4,6,4,6,{32}5,6,7,8,1,2,3,4,{48}5,6,7,8,1,2,3,4,5,6,7,8,
{16}1b/5b-7-3[4:1],,5,,3-8[8:1],,3-5-1[8:3],,,,,,1-7-4[8:3],,8,,7b,,6hx[16:1],,,5hx[16:1],,,,,
{8}2-5[8:1],5-2[8:1],2-7[8:1],7>5[4:1],6v1[8:1],6,6x,,84,37,26,1b/5b,{16}8v3[8:1],7,,,68,,,,
{8}45,3,28,1-5[8:1],7-4[8:1],1,7,,3,2,15,48,4>2[8:1]/8<6[8:1],,48,,
{8}1s5[4:1],,7-3[8:1],7,,4x,,,B6f/2,B1f/5,47,36,{16}4w8[8:1],5,3,,4x,,,,
{16}8x/4x,,3,1,2-6[32:3],,1-5[32:3],,1,,8-4[32:3],,8,,,,,,,,7p3[8:1],,7h[8:3],,,,,,8b,,,,
{16}16,,2,5,3,,4-7[8:1],,2-4[8:1],,4>6[2:1],,2,,,,7,,6>4-1[8:3],,5,,4hb[4:1],,,,,,5b,,,,
{16}48,,7,5,6-2[32:3],,4-8[32:3],,4,,5w1[8:1],,5,,,,,,5,,46,,3h[4:1]/7h[4:1],,,,,{48},,E4/E8,B4/B8,B5/B1,E6/E2,,,,
{16},,5h[4:1]/1,,8,,7,,6v1<6[8:3],,6,,5v2>5[8:3],,5,,,,,,E6,,C,,
{16}1hb[8:3],,2,2,,,3,,,,35,,,,4pp4[8:5]b*qq4[8:5]b,,,,,,,,,,,,,,,,,,
{16}5h[16:3]/3,,,1h[16:3],,,7h[16:3],,,4h[16:3],,,8,,,,
{16}37,,6h[16:1],4,,3h[16:1],5,,,4,6,4,6,,1,1,7,,8h[16:1],2,,3h[16:1],
{4}1>4[8:1]*<6[8:1],1w5[8:1],1-5-3-7-5-1[8:11],,Ch[8:13],,,,{8},,8,7,6,5pp1[2:1]*qq1[2:1],5,,,,,,,
{16}1b/6b,,,3b/8b,,,2b/8b,,,,,,{64}Ch[32:5]/1hx[32:5],,,,,,,,,,,B1,E2,B2,E3,B3,{8}4hx[1:1],,,,,,,,
{32}5,6h[32:31],,,,,,,,,,,{8},,,2,2,2h[8:5],,,,,7,{16}1,8,2,7,1b,,8-4[8:1],8,,,1,,,,2h[16:22],,,,,
{48}3x<1[16:13]b,D4,A4,D5,A5,D6,
E
