&title=Fragment of Memories
&artist=U-Ruri
&first=0.05
&des=米基哈
&lv_5=13+
&des_5=米基哈
&inote_5=(154){4},,,,
{2}5/3h[2:1],B3,
{8}4/6h[8:3],{16},,,,E6,E5,{8}E4,,,2,
{2}4/2h[2:1],C,
{8}5/7h[8:3],{16},,,,E8,E7,{8}E6,{16},,,,3,4,
{8}3h[8:3],,,4,{2}5/2,
{4}7h[4:1],5h[4:1],{2}4q8[4:1],
1h[2:1],3h[2:1],
{4}4,3/5,6,5/7,
1b/8bV64[8:3],1,2qq5[2:1],5,
6,7-4[8:1],7/8,{8}3,2,
{4}1b/8b,7q4[4:1],4q8[4:1],{8}3,2,
{4}1h[8:3],{8}8,{16}8,7,{8}6,1,5/2,{16}3,4,
{4}3>8[4:1],C,7<4[4:1],C,
1p5[4:1],5p1[4:1],1<5[4:1],5>1[4:1],
{8}8,8,7,7,6,5/3,2,1/8,
{16}7,6,5,4,1,2,3,4,6,5,7,3,4,2,{8}8,
{4}7/1s5[8:5],E6,E7,E8,
{8}3b/7b,{16},,,,3,4,2h[16:3],,,3h[16:3],,,{8}4,
{4}7<4[4:1],4q8[4:1],8q4[4:1],4>1[4:1],
1,{8}4,4h[4:1],{16},,,,8,1,{8}7,
,5/2,{16}3,4,{8}2,4/5,6,7/5,1,
4/2v5[8:1],{16},,,,6,7,8-4[8:1],,,5,,,{8}2,
{4}8>3[4:1],3<6[4:1],6<1[4:1],1>4[4:1],
5,{8}6,6h[4:1],,B1/E2,{16}E7,E6,{8}E5,
C,E8/B8,{16}E3,E4,{8}E5,7,1/8,2,3/5,
{4}7h[2:1],B1,4h[2:1],B5,
6h[2:1],E8,2h[2:1],E3,
1h[2:1],B4,{8}5,8,{16}7,5,{8}6,
4/5,2h[8:1],{16}1,2,{8}8,{4}8/7-3[8:1],7/4-1[8:1],
4/2-6[8:1],7h[4:1],5h[4:1],4q8[8:1],
4/2,6/5p1[8:1],5/7,3/4h[8:5],
3,{8}5,5p1[8:1],{16},,,,7,6,5,4,
1,2,3,4,1,8,7,6,3,5,4,7,5,6,3,4,
{8}2b-6[8:1],,,5b,{4}5-8[8:1],{8}1,{16}1,2,
3,6,5,7,4,6,5,7,3,4,2,5,3,4,2,5,
{8}1bq5[8:1],,,6b,6<1[8:1],{16},,,,3,2,
1,8,5,6,7,8,2,1,2,8,1,7,5,6,4,5,
{8}3bp7[8:1],,,8b,{4}8-6[8:1],8/2-6[8:1],
2/5-8[8:1],5/4-1[8:1],4/8w4[8:1],8,
{8}8<1[4:3],8h[8:5],{16},,,,,,,,,,E7,E6,
E5,E4,E3,E2,{4}E1f,{16}4qq2[4:1],,,6xh[16:3],,,,,{4}4pp5[4:1],
3,2>5[4:1],1,
8>3[4:1],7,6<1[4:1],5,
4>1[4:1],B5,6>3[4:1],B7,
8<5[4:1],B1,2v5[8:1]*q6[8:1],2,
{8}7xV51[4:1],8,1,2,3xV15[4:1],4,5,6,
7xp3[8:1],7,2xp6[8:1],2,5x-8[8:1],5,1x,1,
{16}7b,8,6,1,7,2,8,3,4b,2,5,3,6,4,7,5,
7b,8,6,2,1b,3,7,2,5b,4,8,1,6b,3,7,2,
{4}C,6,4w8[8:1],E5/E4/B4f,
{8}2b/5b,{16}3,4,{8}3,5/4,{16}6,5,,5,{8}7,4/8,
3/7,2/6,4/5,{16}6,5,{8}7b-4[8:1],8,1/7,{16}1,2,
{8}3/5,4/6,8,{16}2,1,{8}3,{16}3,4,,4,{8}2,
5/3,6/4,5/7h[8:1],{16}8,1,{8}2,4/5,5/7,{16}3,4,
{8}2,2>5[8:1],8/1,{24}6,7,8,{8}1,3/7,6/4,{16}6,5,
{8}7x-4[8:1],8,7x/1-6[8:1],2,1x/3-8[8:1],4,5/3x,7,
{16}7b,6,5,4,2,1,3,7,8b,6,2,3,4,5,7,8,
6b,3,5,4,8b,1,6,3,7b,2,5,4,{32}8bv5[8:1]*v3[8:1],7,6,5,4,3,2,1,
{4}8bx,{16}2,4,{8}3,{16}6,5,,7,{8}8>3[8:1],1,
8/4h[8:3],{16},,,,6,5,7,,,8/6,,,{8}1/7,
2/8p4[8:1],{16},,,,3,2,1h[16:3],,,6h[16:3],,,{8}4,
5/3,2/4,1,{16}8,1,{8}7,1/6,2/5,{16}3,4,
{8}2,8,4/7,{16}6,5,{8}7,{16}7,8,,8,{8}6,
{16}1,2,3,4,7,6,5,4,2,3,4,5,{8}8b,7/1,
{16}2,4,3,5,4,6,5,7,4,8,3,1,2,8,1,7,
2,3,4,5,8,7,6,5,{32}2x,3,4,5,6,7,8,1,2/7x,6,5,4,3,2,1,8,
{1}7b/2bxw6[4:3],
{16},,,,,,4,5,3h[16:3],,,2h[16:3],,,{8}1h[8:1],
B8,{16},,,,5,4,6h[16:3],,,7h[16:3],,,{8}8h[8:1],
{16}B1,B2,E3,A3,B8,B7,E7,A6,A1,A2,A3,A4,A8,A7,A6,A5,
{4}1,{8}2,{16}2,4,3h[16:3],,,4h[16:3],,,{8}5h[8:1],
{16}8,7,6,5,4/1,2,3,4,5/6,7,8,1,{4}3/2v5[8:1]*q6[8:1],
{8}2b,{16},,,,6,5,{2}7V15[4:1],
{8}4V62[4:1],{16},,,,1,8,7V51[4:1],,,2,,,{8}3,
4h[8:3],{16},,,,8,8,8h[16:3],,,2h[16:3],,,{8}6h[8:1],
{16}4,5,3,6,4,5,2,4,3,7,5,6,3,4,2,5,
{8}8b,{16},,,,5,4,6h[16:3],,,7h[16:3],,,{8}8,
8V64[4:1],{16},,,,2,1,{8}8-4-2[4:1],{16},,,,5,6,
{4}7V51[4:1],{8}2,{16}2,3,4V62[4:1],,,1,,,{8}8,
{16}7,6,5,4,1,2,3,4,8,7,6,5,4/3,2,1,8,
{4}6b/7bv4[8:1],{8}8,8-3[8:1],,8/5,{4}6<1[8:1],
{24}2,3,4,5-1-3[4:1],{48},,,,,,,,,,{16}8,7,{8}6h[16:3],,,5/7,
8,1,2/4,3,4/6,7,8/1,2/4,
{16}7,5,6,4,5,3,4,2,7,5,6,2,4,3,6,4,
{4}8bz4b[8:5],A3,A2,A1,
{1}A8f/6p4[4:3],
{4}3h[4:3],{8},,,,4,2/5,
{2}1bqq3[1:1],B5,
E7,{8}C/B8/B3/B7,,,2,
{4}2V48[8:3],7-5[8:1],7,6/2,
3/7<5-1[8:3],2>4[8:1],2,3/7,
{16}7-4[8:1],8,,8,{8}7,1,2/4,3,6/4,7,
{4}8/1w5[8:1],1b,{8}3/7,2/8,{16}1,1,1,1,
{8}1b,8/2-5[8:1],3,2/7-3[8:1],8,7/4,2,1/6,
{16}7<4[8:1],8,,8,{8}7,1,2/5,3,7/4>1[8:1],5,
{24}8,7,6,5,,,{8}6b/2b,{16}3,5,{8}4,5/6<1[8:1],7,6/4,
3,4/2,6,{16}7,8,{8}7w3[8:1],6/8,{4}7b,
{16}1,2,3,4,7,6,5,4,8,1,2,3,5,6,7,8,
5x,4,3,2,8x,7,6,5,2x,4,3,7,5x,6,4,5,
3b,3,6,5,6,4,5,3,4,2,6,5,7,2,4,3,
7b,7,8,6,2b,2,1,3,{24}7,6,5,1,2,3,8,7,6,2,3,4,
8b,7,6,5,4,3,2,1,4/8,3,2,1,8,7,6,5,4/8,7,6,5,4,3,2,1,
{8}8b/4b,{16},,,,1/5,2/6,7b/3b,,,1b/E6/E5/B5f,,,{8}7b/B3f/E3/E4,
{32},,,,,,,,,,,,,,,,2,3,{16}4q5[16:43],
E
