&title=Ninelie - REDSHiFT x Vesuvia remix
&artist=Aimer
&first=2.723
&des=Greentea_3064
&clock_count=4
&lv_1=14
&lv_5=14
&inote_1=(178)
{8},,,,
&inote_5=(178)
{8}B5/2h[4:1],B6,B7,E8,,,3,,
{8}B5/3h[4:1],B6,B7,E8,,,2,2,
{8}B5/1,B6,B7/2,E8,3,,4,,
{8}3/B5,B6,B7/3h[4:1],E8,,,2,,
{8}B4/7h[4:1],B3,B2,E2,,,6,,
{8}B4/6h[4:1],B3,B2,E2,,,7,7,
{8}B4/8,B3,B2/7,E2/6,,6,5,,
{16}E3,B3,B4,E5,E7,B6,B5,E5,E2,B2,B3
,E4,E8,B7,B6,E6,
{8}Cf/2h[4:1],,,7,,4,5,4,
{8}7h[4:1],,,2,,5,4,5,
{8}3>8[4:1],,8<5[4:1],,5>2[4:1],,2,,
{4}8-3[4:1],8h[4:1],,7-4[4:1],
{4}7h[4:2],,,
{8}6,5,
{8}4-2[4:1],,2-7[4:1],,,,6,5,
{8}4-2[8:1],,4,8-6[8:1],,8,1,,
{16}6,5,4,3,2,1,8,7,6/3,4,5,6,7,8,1,2,
{16}3b/7b,,6,5,6,,7/4,,6,5,6,,4/7,,,,
{16}5/2,,3,4,3,,2/5,,3,4,3,,5/2,,,,
{16}1,8,2,7,3,6,4,5,
{8}4<7[8:1],3,2,1>4[8:1],8,7,6<1[8:1],5,4,3<6[8:1],2,1,
{8}8q3q6[4:6],,7,/7h[8:3],,,,,7,7,,,7,7,,,
{6}1q6[8:5],2,2h[6:1],,,,
{8}8b-4[8:1]/7b-4[8:1],1/6,8/7,,1b-5[8:1]/2b-5[8:1],3/8,1/2,,
{16}1/7,,8,8,8,,2/6,,1,4,3,7,5,6,1,,
{16}1-5[8:1],2/8,3/7,,1,,,,8-4[8:1],7/1,6/2,,8,,,,
{16}2/8,,1,1,1,,3/7,,8,5,6,2,4,3,8,,
{16}8-4[8:1],7/1,6/2,,8,,,,1-5[8:1],2/8,3/7,,1,,,,
{16}2/7,,1,8,1,,2/7,,1,5,1,5,2,6,2,6,
{16}3/7,,2,1,2,,3/7,,8,4,8,4,7,3,7,3,
{16}2/6,,7,8,7,,2/6,,3,6,3,6,2,5,2,5,
{8}1/4,2/5,3>8[8:1]/6,7,
{32}8w4[8:1]/3,7,6,5,
{8},,,
{4}Cf/B3/B2/B7/B6,,,
{8}2-8[8:1],,2/7-3[8:1],,7,4-6[8:1],,4,8,,
{32}8bx,B8f,,,4,,,,4,,,,2bx,B2f,,,4,,,,4,,,,6bx,B6f,,,4,,,,
{4}7-5[8:1],7/8-4[8:1],8/1-5[8:1],1/2,
{32}2bx,B2f,,,6,,,,6,,,,8bx,B8f,,,6,,,,6,,,,4bx,B4f,,,6,,,,
{4}1-3[8:1]/5-7[8:1],1-6[8:1]/5-2[8:1],1-5[8:1]/5-1[8:1],1/5,
{8}3-7[8:1],7,3-5[8:1],5-8[8:1],3,6x,6x,,
{4}1<6[8:1]*v6[8:1],1>4[8:1]*v4[8:1],1w5[8:1],1,
{8}7-2[8:1],2,7-4[8:1],4-1[8:1],7,,3x,3x,
{16}8,7,6,5,
{4}4/8-2[8:1]*-6[8:1],8-4[8:1],8,
{8}3-5[8:1],,3/1,1-6[8:1],,1/2,2p8[4:1],,
{16},,,,,,1/5,2/6,
{6}3hx[8:1]/7hx[8:1],2hx[8:1]/6hx[8:1],1hx[8:1]/5hx[8:1],
{4}8-3[8:1]/4-7[8:1],8/4,
{8}2v5[8:1],5-3-1[6:1],6,7,
{4}7-3[8:1],7/2-6[8:1]/C,2/8-4[8:1]/C,8/1/C,
{8}2hb[4:1],3,4,3h[4:1],4,5-2[8:1],,5/6,
{8}7hb[4:1],8,1,8h[4:1],1p5[8:1],2q6[8:1],1,2,
{4}7h[8:1],7h[8:1],2h[8:1],2h[8:1],6h[8:1]/C,6h[8:1]/C,3h[8:1]/C,3h[8:1]/C,
{16}4h[16:3],,8,8,3h[16:3],,7,7,2h[16:3],,6,6,1h[16:3],,5,5,
{16}1,5,2,6,3,7,4,8,3,7,2,6,
{4}1w5[8:1]b/5,1qq3[2:6]/Cf,,,,
{1},,
{4},
{16},,8,1,2b/7,,,2/7b,,,2b/7b,,
{8}2-7-1[6:1]/6-3-5[6:1],,2/6,,2h[8:1],4h[8:1],5h[8:1],7h[8:1],
{8}3-7[8:1],7>8-2[6:1],6/3,5,
{16}5<8[6:1],,B1,B2,5/B3,B4,B5,,
{8}6-3-5[6:1]/2-7-1[6:1],,6/2,,6h[8:1],8h[8:1],1h[8:1],3h[8:1],
{8}8-6[12:1],4-2[12:1],8-4[6:1],4w8[4:1],8,4,Cf,,
{8}1-3<4[8:1]/5-7>8[8:1],,1/5,,3/7,1h[8:1]/5h[8:1],,2/6,
{8}4h[8:3]/8,7,6,5,5/3,1,4/6,8,
{16}5/3,,4,4,3/5,,2/6,,1-5[8:1]/7-3[8:1],,8,,1/7,,,,
{8}4-8[8:1],,4/6,6-8[8:1],1,6-3[8:1]*p2[8:1],1,6,
{8}1-3-5[8:1]*-7-5[8:1],,1b,,
{8}2h[8:1],8h[8:1],6h[8:1],4h[8:1],
{8}6-2[8:1],2<1-7[6:1],3/6,4,
{16}4>1[6:1],,B8,B7,4/B6,B5,B4,,
{8}8x-3[8:1],4x-7[8:1],8,4,2-8[8:1],6-4[8:1],2,6,
{8}1-4[8:1],4-1[8:1],1-6[8:1],6-3[8:1],5w1[8:1],5,5/Cf,,
{8}3b-5-8[8:1]/7b-5-2[8:1],,3/7,,7/3,1h[8:1]/5h[8:1],,2/6,
{8}4/8h[2:1],4,3,2,
{16}1h[4:1],,E8,B7,B6,B5,B4,,
{16}2x-6[8:1]/8x,,1-7[8:1],8x,
{8}2-4[8:1],1-5[8:1],2<5[6:1],1,2,,
{16}8,8,7,7,6,6,5,5,4,4,3,3,2,2,1,1,
{8}8bp1[4:3]/Cf,4,3,3,2,2,1qq6[1:1],1,
{8},3,4,4,5,5,6-3-8[2:1],6,
{8},8,8-5-2[2:1],1,1,2,2-7-4[2:1],3,
{8},5,4-1[4:1],4,3,3,2,2,
{8}2q1[4:3],6,7,7,8,8,1>3q4[1:1],1,
{8},7,7,6,6,5,5-2-6-8[8:6]b,4-7-3-1[8:5],
{1},
{8}2h[2:1],1,8,7,6h[8:3],5,4,3,
{8}6/5,,1/8,,6/5,7,8/1,,3/4,,1/8,,3/4,2,8/1-4-7[2:1],,
{4}1/8,7-2-5[2:1],6,5-8[4:1],
{4}8-3-6[2:1],7,6-1[4:1],5,
{8}6-1[8:1],5,4/6,3,3-8[8:1],4,5/3,6,
{8}7-4[8:1],8,1/7,2,2-5[8:1],1,8/2,7,
{8}2>4[8:1],1,8/2,7<5[8:1],8,1/7,2>8[16:7],,
{4},,
{32}1,2,3,4,5,,,,8,7,6,5,4,,,,
{1}1b>2-4<5-7>8-2>3-5<6-8>1[1:7],
{2}B7,B6,
{6}E3,B3,B4,
{2},
{2},
{4},
{8}B3,B2,
{6}E7,B7,B8,
{2},
{2},
{2}C,
{6}E1,C,E5,
{2},,
{2}Cfh[2:1],
{4}2h[4:3],6,6,6,1h[4:1]/6,6,2h[4:1]/6,
{16}6,,2,3,
{16}4x/6,,,4x,6,,,4xh[16:13],
{4}6,6,6,6,6/3h[4:1],
{16}6,,3,2,
{16}7/1x,,7,1x,7,,7,1xh[16:13],7,,7,,7,,7,,
{8}8,8,8,8,8/2h[4:1],8,8,8,
{12}2,4,3,7,5,6,1,3,2,8,6,7,
{4}1bw5[4:2]b,,,,
{8}8-5[8:1]/7,1,2/8,3,
{16}1-5[8:1],2,3,4,5,,,,
{8}1-4[8:1]/2,8,7/1,6,
{16}8-4[8:1],7,6,5,4,,,,
{8}5v8[8:1],4,3v6[8:1],2,1v4[8:1],8,7,6,
{16}5>3[8:1],,8,7,5-2[8:1],,7,6,5q1[8:1],,8,7,5,,
{24}7,6,5,
{16}4b<6[8:1],,1,2,4-7[8:1],,2,3,4p8[8:1],,1,2,4,,
{24}2,3,4,
{16}5-2[8:1],,3,4,5-8[8:1],,7,6,5-1[8:1],,3,4,5,,,,
{8}7-4[8:1],4-7[8:1],7-2[8:1],2-7[8:1],2>5[8:1],,2,,
{4}8b-6[8:1]*-5[8:1],8b-2[8:1]*-3[8:1],8bw4[8:1],8b,
{16}8/4,7,6,5,4/8,3,2,1,8/4,3,2,1,8/4,7,6,5,
{32}4/8b,,,,,,,,8b>3[12:1],7,6,5,,,,,7b,6,5,4,,,,,8b,1/7,2/6,3/5,,,,,
{16}1/5,2,3,4,5/1,6,7,8,1/5,6,7,8,1/5,2,3,4,
{32}5/1b,,,,,,,,1b<6[12:1],2,3,4,,,,,2b,3,4,5,,,,,1b,8/2,7/3,6/4,,,,,
{16}5h[8:1],,3,3,6h[8:1],,3,3,7h[8:1],,3,3,8xb,,,,
{16}4h[8:1],,6,6,3h[8:1],,6,6,2h[8:1],,6,6,1xb,,1xb,,
{4}1-5[8:1],1/7-4[8:1],7/2-5[8:1],2/6-3[8:1],
{4}6/1-4[8:1],1/8-6[8:1],8/3-7[8:1],3/5-2[8:1],
{8}5/1-4[8:1],1,1/7-3[8:1],7,7/2-6[8:1],2,2/8,8,
{16}1,8,3,6,2,7,4,5,2-6[8:1]b,8,4,6,2b,,,,
{4}3xh[4:1],4-6[8:1],4/2h[4:1],7-5[8:1],
{4}7/1h[4:1],4-6[8:1],4/2h[4:1],7-1[8:1],
{4}7/4h[4:1],2-8[8:1],2/3h[4:1],7-5[8:1],
{4}7/2h[4:1],4-6[8:1],4/1h[4:1],,
{8}4x,,3/5-7[8:1],3,3/5,,
{8}2/4-6[8:1],2,2/4,,
{8}1/3-5[8:1],1,1/3,,
{8}8/2-4[8:1],8,8/2,,
{8}7/1-3[8:1],7,7/1,,
{8}6/8-2[8:1],6,6/8,,
{8}5/7-1[8:1],5,5/7,,
{8}7<5[8:1],,7/B4/E4,,6>4[8:1],B3,6/B2,,
{8}5>3[8:1],,5/B2/E2,,4>2[8:1],B1,4/B8,,
{8}3>1[8:1],,3/B8/E8,,2<8[8:1],B7,2/B6,,
{8}1<7[8:1],,1/B6/E6,,8<6[8:1],B5,8/B4,,
{4}Cfh[4:1],B2/B3/B7/B6,
{8}6>4[8:1],B3,6/B2,,
{8}5>3[8:1],,5/B2/E2,,4>2[8:1],B1,4/B8,,
{8}3>1[8:1],,3/B8/E8,,2<8[8:1],B7,2/B6,,
{8}1<7[8:1],,1/B6/E6,,8<6[8:1],B5,8/B4,,
{4}Cfh[4:1],
{64}B2,B6,B3,B7,B4,B8,E1,E5,
{8},
