&title=Resolver
&artist=Gomadare
&first=0.006
&des=屑dake
&lv_5=13+
&des_5=屑dake
&inote_5=
(122){16},Cfh[16:1],,,{4}1h[16:3],{16}2h[8:1],,,3h[16:1],,,,5h[8:1],
,,{8}6h[8:1],{16},,7h[16:1],8h[16:1],,5x,{8}4xh[16:1],{16},4xh[16:1],{8}3x,
{4}Cfh[16:1],1h[16:3],{8}8h[8:1],7h[16:1],{16},,,1xh[16:5],
,,{8}5h[8:1],{16},,3,6,5h[8:1],,,7h[16:3],,,{8}8h[16:1],
{4}4bx-2[16:1],{16}4bx,5,6,7,4bx-2[16:1],6,5,6,4bx,5,6,3h[4:1],
{8}4bx-2[16:1],{32},,,,,,,,6,7,{16}8,5bx-7[16:1],4x,,,5bx,1,2,3h[4:1]/5bx-7[16:1],
,,,5bx,,4,{8}3,{12}1,3,5,7h[8:1],{48},,,,,,,,{16}5,
6,,3,{8}2,{16}6,7,{32}3x,5x,2x,6x,1x,7x,{16}8x-5b[16:1]*z4b[16:1],{32}5x,3x,6x,2x,7x,1x,8bx,Cf,
,,,,,,{16}8bh[16:3]/1h[16:3],,,,8h[8:1]/3h[8:1],,,{8}8h[16:1]/6h[16:1],,1bh[8:1]/3h[8:1],
{16},1h[8:1]/7h[8:1],,,1x-3-6[8:1],,,8x-6-3[8:1],,,,8xw4[8:1],,,,,Cf/B8f/B5f/B4f/B3f,
,,7bh[8:1]/2h[8:1],,,,7h[32:3]/4h[32:3],{32},,,7h[16:1]/8h[16:1],,,,,,,,,{8}1bh[16:5]/7bh[8:1],
,3h[16:1],{16},4,5,6bh[8:1],,,{8}2xh[8:1]/1w5[8:1],8h[16:1],{16}1x,B1f/Cf/B6f/B5f/B4f,
,,,,6,7,6,5,3,2,3,4,7,1,{8}2/8h[16:3],
{16},7bx,{32},,,,,,6,7,{16}8,4,5,3,{8}1h[8:3]/8h[16:1],{16}7,6,{8}5h[8:1],
,8/4,{32},5,,3,,,{16}1xh[32:1],7xh[32:1],5xh[32:1],{32},3h[32:7],,2h[32:5],,,,,,,,,{16}3bx/5bx,
8,{32},4bx/6bx,,1,,,{16}3bx/5bx,{32}1,,,8bx/4bx,,,{16}2bh[16:15],{48},,,,,,{12}1xh[16:1],,1xh[12:7],
{24},,,,,,,,,,,,,,,{8}8,{4}8h[4:1],
{8}2,2h[4:1],,1h[4:1],,8h[4:1],,7h[8:3],
{24},,,,,,,5,4,3h[16:5],{48},,,,,,,,,,,,,,,,{16}1,8,{8}7h[8:1],
{16}8x,1x,2x,1x,2x,2xh[8:1],,1h[8:1],,8h[8:1],,7h[16:1],,,{8}7,
7,7,7,7,7,7b,{32}8,1,8,1,{8}8x<4[0.7377##0.9836],
2,2,2,2,2,2,2b,{16}7b,7,
8b,8,6b,6,1b,1,5,5b,2,2b,4,4b,3,3b,{8}6bh[8:1]/5bh[8:1],
,7bh[8:1]/8bh[8:1],{16},4bh[8:1]/3bh[8:1],,,,2bh[8:1]/7b<2[8:1]*<2[8:1],,,,{144}7bx>4[8:1]*>4[8:1],D7,,{72}A6,D6,A5,D5,A4,D4,A3,D3,{18}A2,
{72},,,,,D8,A8,D1,A1,D2,A2,D3,A3,D4,{36}A4,{144},,,,,,,,,,,,,{16}8h/7bh[32:1],7h[32:1],7h[32:1],,8h/1bh[32:1],1h[32:1],1h[32:1],{64},,,,4x,E5,B5,B6,{32}E7,{64}4x,E4,B3,B2,{32}E2,
,,{16}A7/D7/A6,,A2/D2/D3,{8}8x-6[16:1]*-5[16:1],8x-2[16:1]*-3[16:1],{16}8bxw4b[8:1],,,,,Cf/B5/B4/B3,,,,6bxh[16:3]/2bxh[16:3],
,,,,7h/8bh[32:1],8h[32:1],{8}8h[32:1],{16}1h/8bh[32:1],8h[32:1],{8}8h[32:1],{16}4,3,
{8}4,6-8-2[8:1],2-4-6-8[16:3],6v1[16:1],{64},,,,,,,,,,,,,,,,2bx<6[8:1]*-8-6[8:1],D3,A3,D4,A4,D5,A5,D6,{4},{16},,,4h/2bh[32:1],
2h[32:1],2h[32:1],,4h/6bh[32:1],6h[32:1],6h[32:1],{64},,,,8x,E8,B7,B6,{32}E6,{64}8x,E1,B1,B2,{32}E3,
,,{16}B6/E6/B5,,B3/E3/B2,{8}4x-2[16:1]*-1[16:1],4x-6[16:1]*-7[16:1],{4}4bxw8b[8:1],{16}4x-8-3[8:1]*-8-5[8:1],Cf/B1/B8/B7,,,,,,,,6h/4bh[32:1],
4h[32:1],4h[32:1],,2h/4bh[32:1],4h[32:1],4h[32:1],,6,5,8,
,3-1-7[8:1],,7-5-3-1[16:3],,3v8[16:1],{4},{16},,,{48}8/4,7bx/3bx,6bx/2bx,{8}5bx/1bx,
{48},,,1/5,2bx/6bx,3bx/7bx,{8}4bx/8bx,{32}8b,7x,8x,7x,8x,7x,,,1b,2x,1x-7[16:1]*-5[16:1],2x,1x-6[16:1]*-4[16:1],2x,,,,,,,,,,,{8}1bx,
1x<6[16:1]*-6[16:1],1x-4[16:1]*>4[16:1],1bxw5b[16:3],{16},,,,,,,Ch[4:1],
{32},,,,,,,,5b,6x,5x,6x,5x,6x,,,4b,3x,4x,3x,4x,3x,,,{8}5,1>3-5[8:1],
{16}5<7-1[8:1],1-3-7-5b[0.6148##0.4918],,,,,,,,,{8}A5f,{48}8/1,7bx/2bx,6bx/3bx,5bx/4bx,,,,,,,,,5/4,
6bx/3bx,7bx/2bx,8bx/1bx,{96},,,,,,,,,,,,,,,,{32}7b,6x,7x,6x,7x,6x,,,2b,3x,2x,3x,2x,3x,,,8x,7x,6x,5xh[16:1],8x,7x,6x,5xh[32:7],
{8}E5/B4/E4/D5,B2/E3/B3/A2/A3,{48},,,4,5,6,7,8,,,{24}1bxw5b[48:5],1,1,{12}1,{96},,,,,,,,{32}Cf/B7/B8/B1/B3/B2,,,,,,,3h[32:25],
{16}5bxh[8:1],,,7bx,,8bx,{24}1bx,,2bx,,4bx,,5bx,6bx-8-2-4-6b[2:1],,{4}Cf/7bx-1-3-5-7b[2:1],
{16},,,,,,,,,,2,3,4/8q5[32:3],1x,,7,
8/7,Cf,,,1p4[32:3],7,5,3,1/2,Cf,{32},,,,6/5p8[32:3],,,8p3[8:1],,,{16}1x,
{32}4/5,,,,,C,,,,,{16}8h[8:1],,4h[8:1],,2h[8:1],,6h[4:1],{4}5qq2[4:1],
{12}5xv8[4:1],{24}B6,B7,,B6,{4}B7,,1xqq6[4:1],
{12}1x-5-3[16:3],{24}B4,B3,,B4,{4}B3,{16},5,6,7,8xp4[8:1],4/3,,1,
7/8,,,8/2,,6/8,,4/6,,4/2,,7-5-3[8:1],,3-1-7[8:1],,7,
,,,,,1/3,,7/1,,7/5,,5/3bqq7[4:1],,,,3x<5-7[4:1],
{48},B5,,{16}B6,{48},B5,,{16}B6,,8x,,8x,,,,1h[8:1],,8h[16:1],2h[16:1],7h[16:1],
3h[16:1],6h[16:1],4h[16:1],5h[16:1],4h[16:1],5h[16:1],,4-6-1[8:1],8x,1x-3-7[16:3],2x,3x,,,,Cf,
,,{8}8/6,6/4,2/4-8-2[16:3],2/8,6/4,7,6,
{24}3/4,E7/B7/E8/B8/E1,,,,,{8}4h[8:1],5h[8:1],{12}6v1<7v4[2:1],6h[6:1],{48},,,,,,,,,,{16}B3,B2,
{48},,,,,,8x<5[8:1]*>3[8:1],A8,B8,C,B4,A4,,,,,,,,,,,,,,,,,,,{8}4,{16},4h[16:7],{48},,,,{24}5x,
{12}6,{24}5x,6,,,{12}8,7/1,6/2,{48}E3,B3,B4,E5,,,{16}5xh[8:1]/6x-8[24:1],8x-2[0.4508##0.082],,,,,,4xh[32:3]/3xh[32:3],
{32},,,5h[32:3]/7h[32:3],,,,,{8}8h[32:3]/2h[32:3],{32},4x/3x,3x,4x,{8}2x>3-8-5[4:1],{4}6/8-4[0.5328##0.2049],
{16},B6f/Cf/B2f,,,{8}8bx/6bx,2b/4bw8b[8:1],8b/2b,{16}4b,B8f/B1f/B2f,,,5x/6xh[8:5],4,
4,3,,,{8}8b,5b,{16},3h[16:3],,,{8}7h[8:1],2h[8:1],
{16}6h[16:1],1h[16:1],5h[16:1],8h[16:1],4h[16:1],7h[16:1],{8}3h[16:1],{16},Cf/B8/B1/B2/B3/B4/B5/B6/B7/D6/A5/D5/D1/A1/D2,,,,7h[16:11],,,8h[8:1],
,,1h[16:1],,2,{8}3,{16}5h[8:3],,,1h[16:5],,,,,4,
8,3,7,2,6,{8}1h[16:1],{16}1h[4:3],,,5h[16:9],,,,,,,,,,,,,,,{8}6,
{16}6,8,,8,
{8}1,{16}1,3,,3,,5h[8:1],,B5f,,,,8,,,{8}6,
4,{16}5,3,{8}1,{16}8,,,6,,,3h,4h,
6,5,{32}8,,,3h[16:1],,4h[16:1],,1h[16:1],,,,,{4}6<6[8:9],6<6[8:7]*<6[8:7],
{1}6q2q6b[8:5],
{16}7bx/2bx,8b/1b,,6,{12}5b-1b[12:1]/4b-8b[12:1],3,3,{16}5b/4b,Cf,,,5,5,{48},,{12}4,
{16}3,3,{48},,{12}4,{24}5x-1[12:1],6,7,5,4,3,5bx,Cf,{96},,,,,,,,,,,,,,,,{32}A6,D6,A5,D5,,,{16}8,
8,8,{32},,,,A3,D4,A4,D5,,,,,{16}1,2,,8,{8}8,7,
{16}6,6,{8}5,4/3,1/2,{16}7/8,,,6,,,5,6,
4,3,,1,,1-7[16:1],{8}5,{16},1-3[16:1],{8}5,{16},1-7[16:1],{8}5,
{16},1-3[16:1],{8}5,{16},1-7[16:1],{8}5,{16},1-3[16:1],{8}5,{16},1x-7-5-3-1[0.3689##0.8197]*s5z1[0.3689##0.8197],{8}5,
{16},,,,,,,,8bx,7,6,5,4bx,3,2,1,
8bx,7,6,5,4bx<4b[4:3],3,2,1,{2}8bs4b[0.7377##0.7377],
{4},{16},,,{64}8b/2xh[8:1],E8f,B7,B6,{16}E6,{64},,,,,,,,7bx/2xh[8:1],6,{32}5,,,{16}8x,{64},,,,7bx/3xh[8:1],6,{32}5,
,,{16}8x,{64},,,,7bx/3xh[8:1],6,{32}5,,,{16}8x,{64},,,,6bx/1xh[8:1],5,{32}4,,,{16}8x,,5h[32:5],{32}1,,,1,,5,,1,
,5,,5,,,{16}1,5,1,{64},,,,1b/7h[8:1],E2f,B2,B3,{16}E4,{64},,,,,,,,2bx/7h[8:1],3,{32}4,,,{16}1,{64},,,,2bx/6h[8:1],3,{32}4,
,,{16}1,{64},,,,2bx/6h[8:1],3,{32}4,,,{16}1,{64},,,,3bx/8h[8:1],4,{32}5,,,{16}1,{64},,,,3bx/8h[8:1],4,{32}5,,,{16}1,{64}7bx/C,6,{32}5,{64},,,,,,,,2bx/C,
3,{32}4,{64},,,,7bx/C,6,{32}5,{64},,,,2bx/Cf,3,{32}4,{64},,,,8b/2h[8:1],E8f,B7,B6,{16}E6,{64},,,,,,,,2bx/7h[8:1],3,{32}4,,,{16}1,{64},,,,7bx/3h[8:1],6,{32}5,
,,{16}8,{64},,,,2bx/6h[8:1],3,{32}4,,,{16}1,{64},,,,7bx/2h[8:1],6,{32}5,,,{16}8,{64},,,,2bx/7h[8:1],3,{32}4,,,{16}1,{64},,,,7bx/3h[8:1],6,{32}5,
,,{16}8,{64},,,,2bx/6h[8:1],3,{32}4,,,{16}1,{64},,,,8b/2h[8:1],E8f,B7,B6,{6}E6,{12}8bxh[24:1]/6xh,8h[24:1],8h[24:1],8bh[24:1]/4xh,
8h[24:1],8h[24:1],8bh[24:1]/2xh,8h[24:1],{24}8h[24:1],B1/E2/B2,,C,,E8/B7,{48},,,,E6,,,,,,,B4/B3/E4,,,,,,{16}B1/E2/B2,
,B8/B7/E7,,,{8}B5/E5,1bx/Cf,{32},,,,3b/6h[16:11],2,1,8,{8}7,{32}3b,2,1,8,
{8}7,{32}7b,8,1,2,3,4,{16}5,{32}1x/7h[32:15],,,8,,8,,,2,,,1x-6b[16:1],,1x-3b[16:1],,,,1x-5[16:1],,1x-4[16:1],
{4},{16},,{48}8x,7x/1x,2x/6x,5x/3x,{24}4bxh[24:1],{16},,{64}6bx/2xh[8:1],5,{32}4,,,{8}8x,{64}7bx/3xh[8:1],6,{32}5,,,{8}1x,
{64}8bx/4xh[8:1],7,{32}6,,,{8}2x,{64}1bx/5xh[8:1],8,{32}7,,,{8}3x,{64}1b/6xh[8:1],E2f,B2,B3,{16}E4,,C,{64},,,,2bx/C,3,{32}4,
{64},,,,,,,,7bx/C,6,{32}5,{64},,,,2bx/C,3,{32}4,{64},,,,7bx/Cf,6,{32}5,,,,,,,{8}8/1h[8:1],4,{16}6,7,
5,2,{24}4-8-4[16:3],3,5,4,6,{3}1,{24}6,4,,4,{96},{32}7,1,8,{16}2,
{8}6,4h[16:3],{32},,,,8bxq4[8:1]/4bxq8[8:1],7x/3x,2x/6x,5x/1x,{16}8x/4x,{32},,,,,,,,6x,6x,,,{16}2x,
6x,2x,6x,2x,{32}6x,6x,{48}3x,4x,5x,6x,7x,8x,1x,2x,3x,{240},4x,,,,,,5x,,,,,,6x,,,,,,7x,,,,,,{48}8x,{240},1x,,,,,,2x,,,,,,3x,{480},,,,,,,,,,,,,4x,,,,,,,,,,,,,,,{120}5x,{480},,,,,,,,,,,6x,,,,,,,,,,,,,,,{240}7x,{480},,,,,,,,,,,,,8x,,,,,,,,,,,,,,,1x,,,,,,,,,,,,,,,2x,,,,,,,,,,,,,,{96}3x,,,,{32}4x,
{96},5x,,,,6x,,,,{32}7x,{96},8x,,,,1x,,,,,,,{16}Cf,8x-5[8:1],,4,,8-3[8:1],,4,,8-5[8:1],,4,
,8-3[8:1],,4,,8-5[8:1],,4,,8-3[16:1]*-2[16:1],,4,,8-6[16:1]*-5[16:1],,4,
,8w4b[48:5],,4,,8x>3[8:1],{8}Cf/B5f/B4f/B3f,{16},8<5[8:1],,5,,8>3[8:1],,3,
,8<5[8:1],,5,,8>3[8:1],,3,,8<5[8:1],,5,,8,,3,
,1w5b[48:5],,,,1bx,{8}Cf/B6f/B5f/B4f,{16}7,8,1,2,3,2,4,6,
,6,{8}5,4,2,{4}1-5[12:1],1-7[12:1]*-3[12:1],
1w5b[8:1],{12}1b,Cf/B6f/B5f/B4f,{48},{16}1x,,,6,4,,2,1,8,
3,3,{48},,,,,,{12}8-4[12:1],7,,8/1-5[12:1],2,,1/8-4[12:1],7V53[6:1],,8,
7,,{4}Ch[8:1],
E
