&title=【改】魔法少女達の百年祭
&artist=黄昏フロンティア(ziki_7)
&first=0.02
&des_5=Jan495
&lv_5=13
&des=Jan495
&wholebpm=85
&clock_count=4
&inote_5=(85)
{1},{8},
{8}6^4[85#16:1],
(170)
{4}1,1,3^5[85#16:1],8,8,
6-4[85#16:1],1,1,3-5[85#16:1],8,8,
7^4[85#16:1],1,1,2^5[85#16:1],8,8,
7^4[85#16:1],1,1,2^5[85#16:1],8,8,
6-4[85#16:1],1,1,3-5[85#16:1],8,8,
7^4[85#16:1],3,3,2^5[85#16:1],6,6,
8^5[85#16:1],4,4,1^4[85#16:1],5,5,5xv8[85#16:1]*q1[85#16:1],4V26[85#8:1]/6,5,4b,,
{16}E7,B6,B3,E3,
{4}8x<3[85#16:3],2V46[85#32:5],8,,,1^6[85#8:1],
2qq4[85#4:1],,,5-7[85#16:1],,1q5[85#16:2],5x>1[85#32:5],6,6,7-5[85#16:1],3x,3,
2pp5[85#4:1],6<2[85#8:1],2V48[85#32:5],,,1x,
2x<4[85#16:5],7p4[85#16:4],2,,,8x<4[85#16:3],
3qq8[85#4:1],,,7x-5[85#16:1],,2q4[85#16:3],8<4[85#32:5],2,,2xV48[85#32:5],6x,6,
7^4[85#16:1],2-8[85#16:1],7v4[85#16:1]*p3[85#16:1],2,7b,,
{4}8-6[85#16:1],1-5[85#16:1],2-4[85#16:1],1^6[85#16:1],,,
{4}2-4[85#16:1],1-5[85#16:1],8-6[85#16:1],1pp1[85#8:1],,,
{4}7-5[85#16:1],8-4[85#16:1],1-3[85#16:1],8^5[85#16:1],,,
{4}1-3[85#16:1],8-4[85#16:1],7-5[85#16:1],8pp5[85#16:3],,,
{4}8-6[85#16:1],1x-5[85#16:1],2-4[85#16:1],1^6[85#16:1],,,
{4}2-4[85#16:1],1-5[85#16:1],8-6[85#16:1],1pp1[85#8:1],,,
{8}8h[2:1],,,,1,2,3h[4:1],,
{16}8,7,6,,{4}2h[4:1],
{8}1,1h[8:1],8,8h[8:1],6,6h[8:1],5h[4:1],,4h[4:1],,
{24}2x,1x,8x,7x,6x,5x,
{8}4x/8bx^5[85#16:1],,4,4,4,,3^8[85#16:1],,7,7,7,,6^3[85#16:1],,2,2,2,,1-5[85#16:1],,7,7,7,,
{8}6V84[85#8:1],,3,3,3,,2^5[85#16:1],,6,6,6,,
{4}7V58[85#4:1],5,8-4-1[85#4:1],4,3,2x,
{8}2^5[85#16:1],,6,6,6,,7^2[85#16:1],,2,2,2,,3-7[85#16:1],,7,7,7,,6^3[85#16:1],,3,3,3,,
{8}1V37[85#8:1],,6,6,6,,5^8[85#16:1],,1,1,1,,
{4}1xq5[85#8:1]/4-2[85#16:1],5<1[85#8:1]/2,1/4,3bx,,
{16}E3,B3,B6,E7,
{4}2x<4[85#16:5],7p4[85#16:4],2,,,8x<4[85#16:3],
3qq8[85#4:1],,,7x-5[85#16:1],,3^8[85#8:1],8qq3[85#16:3],6,6,8x-2[85#16:1],4x,4,
{4}3qq4[85#16:3],7<8[85#16:4],3,7,,3,
{4}8<3[85#16:3],2V46[85#32:5],8,,,1^6[85#8:1],
2qq4[85#4:1],,,5-7[85#16:1],,3q5[85#16:3],8<4[85#32:5],3,,2xV48[85#32:5],6x,6,
{4}7^4[85#16:1],2-8[85#16:1],7v4[85#16:1]*p3[85#16:1],2,7b,,
{4}2-4[85#16:1],1-5[85#16:1],8-6[85#16:1],1pp1[85#8:1],,,
{4}8-6[85#16:1],1-5[85#16:1],2-4[85#16:1],1qq4[85#16:3],,,
{4}1-3[85#16:1],8x-4[85#16:1],7-5[85#16:1],8pp8[85#8:1],,,
{4}7-5[85#16:1],8-4[85#16:1],1-3[85#16:1],8qq5[85#16:3],,,
{4}2-4[85#16:1],1x-5[85#16:1],8-6[85#16:1],1pp1[85#8:1],,,
{4}8-6[85#16:1],1-5[85#16:1],2-4[85#16:1],1qq4[85#16:3],,,
{8}2h[2:1],,,,8,7,6h[4:1],,
{16}1,2,3,,{4}7h[4:1],
{8}1,1h[8:1],2,2h[8:1],3,3h[8:1],4h[4:1],,5h[4:1],,
{24}7x,8x,1x,2x,3x,4x,
{4}1bx^4[85#8:1]/5x,4q6[85#8:1],6<2[85#8:1],2xqq4[85#16:4],,,
{4}7xV51[85#32:5],7,3x>6[85#16:3],3,6,5,
{4}2x-5[85#16:1]/8x-4[85#16:1],37,8qq3[85#16:3]/2,3x,8,,
{4}7x-4[85#16:1]/1-5[85#16:1],62,1pp6[85#16:3]/7,6x,1,,
{4}5qq3[85#8:1],3^8[85#8:1],8<4[85#8:1],4xq2<5[85#16:5],2x,,
{4}3xV15[85#16:3],3,6xV83[85#16:3],6,2,2,
{4}1^4[85#8:1],4^7[85#8:1],7V52[85#8:1],2xpp5[85#16:3],8x,6x,6xpp5[85#16:5],4xqq5[85#16:3],6,4,,
{32},,,,8x,1x,2x,3x,
{4}8bx-6[85#16:1]/4x,2,8,5x>5[85#16:5]/1xh[8:1],{32}1b,8x,7x,6x,
{8}5x,8x,7x,
{4}6xpp1[85#4:1],,1xpp4[85#16:3],1x,,6,
{4}1x>1[85#8:3]/5xpp1[85#8:3],{32}5b,6x,7x,8x,1x,2x,3x,4x,
{4}5x,,,,
{4}5x>5[85#8:3]/1xqq4[85#8:3],{32}1b,8x,7x,6x,5x,4x,3x,2x,
{4}1x,,,,
{4}4b-2[85#16:1]/8,6,4,1x<1[85#16:5]/5xh[8:1],{32}5b,4x,3x,2x,
{8}1x,5x,4x,
{4}3x-8-4[85#16:3],,6x<3[85#16:3],6,3,4,
{4}1xqq7[85#8:1],7<1[85#8:2],1,1xpp5[85#16:4],
{32}1b,8x,7x,6x,{8},{4}5x,6xpp1[85#16:6],6x,4-2[85#16:2],4,,,
{4}3xv8[85#16:1]/7x-4[85#16:1],,Cf,6xpp1[85#8:5]/2xpp5[85#8:5],,,Cf,,,,,,
{4}6^4[85#16:1],1,1,3^5[85#16:1],8,8,
6-4[85#16:1],1,1,3-5[85#16:1],8,8,
7^4[85#16:1],1,1,2^5[85#16:1],8,8,
6-4[85#16:1],1,1,3-5[85#16:1],8,8,
7^4[85#16:1],3,3,2^5[85#16:1],6,6,
8^5[85#16:1],4,4,1^4[85#16:1],5,5,6xV48[85#8:1]/2xV48[85#8:1],8w4[85#8:1],2/6,,,1b,E
