&title=Reinvent
&artist=Sound Souler
&first=1.4
&des=inori_koishi
&lv_5=13.7
&inote_1=
&inote_5=(174){1}B2/B3/B6/B7/Ch[2:7],,,,
{8}7,6,5,4,3h[2:1],5,6,7,,8,1,2,3h[2:1],1,8,7,,6,5,4,3h[2:1],4,5,6,,6,7,8,
{16}1,8,1,8,1,,,,
{8}2b-5[8:1]/7b-4[8:1],,2/7,,7,5,6,4,,5/3h[8:5],,,8-4[8:1],,8,,
3-8[8:1]/6-1[8:1],,3/6,,3,5,4,6,,8h[8:5]
,,,1-5[8:1],2,1,,
{16}1,8,1,8,1,,{8}1,2/7,3/6,4/5,4-1[8:1]/5-8[8:1],,4/5,,,1-5[8:1]/8-4[8:1],,1/8,,
7,6,5,4h[8:5],,,,,5,4,3,2,1w5[12:1],,1b,,
3-8[12:1]/7-4[12:1],,3/7,,1/5,2/6,3/7,8-5[8:5]/4z8[8:5],,4/8,,,,,,,
8h[8:6]/2,,B1,B8,B7,B6,B5,8V62[8:5]/4V26[8:5],,8/4,,,,,,,
5h[8:1],,4/6,4/6,3/7,3/7,2/8,2-5[32:5]-8[32:5]/8-5[32:5]-2[32:5],,2/8,,,,,1>5[4:1],,
5<1[4:1],,1>5[4:1],,5<1[4:1],,1>4[3:1],,5,,,A5,A6,A7,A8,A1,
{16}2x/5x,,3,4,3,,4x/7x,,6,5,6x,,{8}4x/8x,2x/6x,{16},,6,5,6,,3,4,3,,2/5,,1/6,,8/7,,
{16}1x/6x,,7,8,7,,3x/8x,,2,1,2x,,{8}2x/6x,4x/8x,{16},,7,8,7,,2,1,2,,3/8,,4/7,,5/6,,
{8}C,E2/E8,,E3/E7,E4/E6,{16}7,5,,2,4,,,,3,1,3,,6,8,6,,{8}7/8,6/1,5/2,
4/3,,6h[8:1],2h[4:1],,8h[4:1],,4,{16}1b/8b,,1,8b,1,,2b/7b,,{32}2bx,3,4,5,6,7,8,1,2,3,4,5,6,7,8,1,
{8}Cf/2b,,,,,,,,,,,,,,,,1h[4:1],5h[8:1],,2h[4:1],6h[8:1],,3h[4:1],7h[8:1],,4h[4:1],8h[8:1],,5-1[8:1],1,5,,
7h[4:1],8h[8:1],,3h[4:1],4h[8:1],,2h[4:1],1h[8:1],,6h[4:1],5h[8:1],,8-4[8:1],1,8,,
7,1,C,2,8,C,6,4,C,3,5,C,2/7,2/7,1/8w4[12:1],,{64}8b,Cf/B1/B3/B5/B7,,,,,,,
{8},{4},,,,,,,5p4[2:3]b/3>6[2:3]b,,,,,,,,7p5[4:5]b/2q4[4:5]b,,,,,,,4hx[4:5]/5hx[4:1],{24}6x,7x,8hx[24:31],,,,{8},,,,,,{24}3x,2x,1hx[24:7],,,,{8},{24},,7x/2x,6x/3x,5bx/4bx,,{8},,,
7p5[2:1],4,3,2,,1,,2,,3h[8:7],4,4,5,5,6,6,7>6[2:3],,,,,,,,,E7,E8,E1,E2,E3,E4,E5,
6,5,4,3h[8:13],,,,2h[8:10],,,,,,,,,,,4,5,,6h[1:1],,,7,7,8,8,1,1,2,2,
1-4[2:3],8,7,6,,5,,,,,,,,8q1[8:15],,,{24}E4,E5,E6,{8},{4},,,,,,,
{8}8-5[2:3],8,1,1,,,2,,,,,,,,8z4[8:16]b,,1s5[8:14]b,,,,,,,,
{4},,,,,,,{8},{16},{24},{8}7-4[8:1]/8,,7/1,2-5[8:1],,1/2,8,7,6-1[8:1],5,4,3-8[8:1],,4,5,,
7^4[8:1]/8,8,1,2^5[8:1],,1,8,7,
7/8,7/8,6/1,6/1,5/2,5/2,4/3,4/3,1/2,1/2,8/3,8/3,7/4,7/4,6/5,6/5,{16}4,5,4,5,3,6,3,6,7b-4[16:1],,,2b-5[16:1],,,1bw5[2:1],,{4},,,,
{8}8-4[8:1],1,8,2-6[8:1],1,2,8-6[8:1],4,8-2[8:1],4,8-4[8:1],4-8[8:1],8,,C,,
{8}1-5[8:1],8,1,7-3[8:1],8,7,1,5,{16}7,8,7,8,7x,,2,1x,2,1,2,,7x,6x,5x,4x,
{8}2b^5[8:1],1,8,7^2[8:1],6,5,4^7[8:1],3,2,1^4[8:1],8,7,6,5,4,3,
2-6[8:1],1,8,7-3[8:1],8,1,2,4,3/5,3/5,4x/6x,{16}6,4,6,,{8}3/7,{24}7,6,5,3,2,1,
{8}8bx-4[8:1],7-3[8:1],8,7,1^4[8:1],7,6,5^8[8:1],4,3,2-6[8:1],6-2[8:1],2,,C,,
6-2[8:1],5-1[8:1],6,5,7^4[8:1],8,1,2,3,4,5x,{16}6,5x,6,5,6,,3x,4x,2x,4x,
{8}2b^5[8:1],1,8,7^2[8:1],6,5,4^7[8:1],3,2,1^4[8:1],8,7,6,5,4,3h[8:8],
2,1,8,7h[8:4],,,,,2/6,2/6,1/5,1/5,{16}1/5,2,3,4,5p4>6[2:3]/1,6,7,8,
{8}1bx/5bhx[1:1],,,,,,,,,,,,,2,1>7[8:7],1h[8:5],,,,,,,,8,8-5[8:1]*-3[8:1],,,,6/2,6/2,7/1,7/1,
8w4[8:5],,,,,,,,1-5[8:1],8-4[8:1],1-3[8:1],8-6[8:1],1-5[8:1],8-4[8:1],1,8,1w5[2:1],,,,,,,3v5[16:3]/7v1[16:3],2/6,,,,8w4[8:1],,,,
7b/8b,6,5,3/4,2,1,8/1,7,6,5/4,3,2,1-5[8:1]/8-4[8:1],,1/8,,
1/2,8,7,6/5,4,3,1/2-6[8:1],8,8-4[8:1]/2,,1-5[8:1]/8,,5-7[16:1]*-3[16:1],,,,
8/1,8/1,6/7,6/7,4/5,4/5,2/3,2/3,1/2,1/2,3/4,3/4,5/6,5/6,7/8,7/8,
{16}8,7,8,7,1,6,1,6,2,5,2,5,3,4,3,4,{32}3b,4,5,6,7,8,1,2,6b,5,4,3,2,1,8,7,{16}2b/6b,,,1b/5b,,,4b/8b-4[4:31],,
{1}Cf,,,,{4},E8,,E1,,E7/E8,,E1/E2,,E6,,E3,,B4,8-4[8:1]b,8b,
{8}7-5[8:1],,7/4,3-5[8:1],,3/6,7,,2-8[8:1],8-4[8:1],,,5-1[8:1],,C,,
2-4[8:1],,2/5,6-4[8:1],,3/6,2,,7-1[8:1],1-5[8:1],,,4-8[8:1],,C,,
{8}5
,,4/6,,,3,2/1,,8,,7/1,,,6,5/4,,3,,2/4,,,1,1/8,,,6,5/7,{16},4x/5x,,,4x/5x,,6,4,5,3,Cf,
