&title=Area184 -Platinum Mix-[DX]
&artist=Persona
&first=-0.06
&des=om
&des_5=om
&lv_5=14
&inote_5=(184){4},{8}3h[4:1],4,5,2h[4:1],6,5,
3h[4:1],4,5,2h[4:1],6,5,3,4,
{4}5/2,8<1[8:13],,C,
,4<7[8:5],,A6,
,{8}6h[4:1],5,4,7h[4:1],3,4,
6h[4:1],5,4,7h[4:1],3,4,6,5,
{4}4/7,1>8[8:13],,C,
,5>2[8:5],,A3,
,{8}3h[4:1],7,6,4h[4:1],7,8,
3h[4:1],7,6,4h[4:1],7,8,3,7,
{4}6/4,5V71[2:1],,1V35[2:1],
,5<8[8:5],,5>3[8:1],
,{8}6h[4:1],2,3,5h[4:1],2,1,
6h[4:1],2,3,5h[4:1],2,1,6h[4:1],2,
3,5,{4}4V28[2:1],,8V64[2:1],
,4>1[8:5],,4<5<6<7[4:3],
{1},{4},E7/B5/D7/A6/D6/A5/D5/E5/B6/E6f/4b>1[8:1],
{8}7,7<4[8:1],{4},3>8[8:1],
{8}6,6>3[8:1],{4},2-5[8:1]*-7[8:1],
2,6<1[8:1],{8}3,3V52[16:3],{4},8<5[8:1],
{8}1,1V38[16:3],{4},{8}5,6,
{4}1/7,8<5[8:1],{8}3/8,3>8[8:1],{4},7<4[8:1],
{8}2/7,2<7[8:1],{4},6-1[8:1]*-3[8:1],
6,2>5[8:1],{8}7/2,7V16[16:3],{4},4>1[8:1],
{16}7,6,5,4,8,7,6,5,1,8,7,6,
{24}A2,A1,A8,A7,A6,A5,{4}4xh[8:1]/8b-5[8:1],4h[8:1],3h[8:1]/6-2[8:1],
6/3h[8:1],4h[8:1]/1-6[8:1],4h[8:1],3h[8:1]/8-4[8:1],
8/3h[8:1],5h[8:1]/1-4[8:1],5h[8:1],6h[8:1]/3-7[8:1],
3/6h[8:1],5h[8:1]/8-3[8:1],5h[8:1],{16}5,6,7,8,
2,3,4,5,{8}7h[4:1],8,1q4[8:3]*p6[8:3],2,{2},{8}2h[4:1],
1,8-5[8:3]*z4[8:3],7,{2},{8}2h[4:1],
1,8V64[8:3]*-2[12:1],7-3[4:1],{2},{8}7h[4:1],
8p2[4:1],1,2<1-6[4:1]*<1-4[4:1],{2},{8}3xh[8:1],
1,8-5-8[8:3],7,{2},{8}3xh[8:1],
7,2qq7[8:3],6qq3[4:1],{2},{8}6xh[8:1],
3,8V63[8:3],1-4[4:1],{2},{8}6xh[8:1],
3,7pp8-5b[8:3],2,3b,3b,
3b,3b,{4}3h[4:3],7,6,
5,4h[4:1],3,2h[4:1],
1,7/8h[4:3],6,5,
4,3/5h[4:3],2,1,
8,{8}1h[4:1],2,3,4,8-3[8:1],5x<8[8:1],
8x,5,1h[4:1],2,3,4,8-3[8:1],6x<8[8:1],
8x,6,1h[4:1],2,3,4,8-3[8:1],5x<6-8[8:1],
8x,5,1h[4:1],2,3,4,8-3[8:1],5x-8[8:1],
8x,5,1h[4:1],2,3-7[8:1],4,1-5[8:1],2x,
8x,8,7h[4:1],6,5>2[8:1],4,8<5[8:1],7x,
1x,1,2h[4:1],3,4<7[8:1],5,1>4[8:1],2x,
8x,8,{16}7,5,7,5,6,4,6,4,{24}5,6,7,8x/1x,{12},{24}4,
3,2,1x/8x,{12},{4}1-5[8:1],1/7,6V47[16:3],
6/3,2-6[8:1],2/8,7V58[16:3],
{8}7/4,4,{4}3v6[8:1],3/5,7>2[8:1],
7/1,3<6[8:1],3/5,7v2[8:1],
7/1,8q5[8:1],6/8,7v6-4[16:3],
{8}7/2,2,{4}1p4[8:1],3/1,2v3-5[16:3],
2/7,{8}8,8,6,6,4,4,
2,2,7,7,1,1,{16}8,4,6,2,
1-5[8:1],5,7,3,{4}1bx,{16}4,6,4,6,4,6,4,6,
4,6,4,6,3,7,3,7,3,7,3,7,2,8,2,8,
2,8,2,8,1,7,2,8,1,7,2,8,{24}1,2,3,7,6,5,
2,3,4,8,7,6,{4}5b/4b>1[8:1],{8}1V38[16:3],8,{4},7<4[8:1],
{8}4V63[16:3],3,{4},1>3-5[8:1]*-3<5[8:1],
1,8<5[8:1],{8}5V74[16:3],4,{4},3>8[8:1],
{8}8V27[16:3],7,{4},{8}5w1[8:1],4/6,
{4}5,7-4[8:1],{8}4V68[16:3],3,{4}2,
2-7[8:1],{8}7V13[16:3],6,{4}5,5<7-1[8:1]*-7>1[8:1],
5,3-8[8:1],{8}8V24[16:3],7,{4}6,
6-3[8:1],{16}3V57[16:3],2,1,8,E4,E5,E6,E7,E8,E1,E2,E3,
8,7,6,5,{8}4h[16:1],5h[16:1],4h,5h,{16}3,3,{8}4,
{16}3,3,{8}5,5h[16:1],4h[16:1],5h,4h,{16}6,6,{8}5,
{16}6,6,{8}4,{16}3,5,3,5,{8}3,3,{16}4,4,{8}3,
{16}5,5,{8}3,{16}6,4,6,4,{8}6,6,{16}5,4,3,2,
1/8,7,6,5,3,4,3,4,{8}3,4,{16}2,2,{8}5,
{16}3,3,{8}7,{16}6,5,6,5,{8}6,5,{16}7,7,{8}4,
{16}6,6,{8}2,{16}3,4,3,4,2,5,1,6,8,7,8,7,
1,6,2,5,{8}3/4,2/5,7/8,1/6,{24}2,3,4,7,6,5,
1,2,3,8,7,6,{256}1>2p1[4:15]*q2b[5.2174##4.5652],5b>4>3>2<1<8<7<6[256:1855],{1},,,,,,,{4},,,{16},,,{64},,,{128},{8}3h[8:3],
4,,4,2h[8:3],1,
,1,7h[8:3],8,,8,6h[8:3],5,
,5,2h[8:7],3,,3,,4,
,4,6h[8:3],5,,5,4h[8:3],7,
,7,8h[8:7],1,,1,,2,
,2,3h[8:3],5,,5,6h[8:3],4,
,4,2h[8:7],7,,7,,7,
,7,{16}1,8,1,8,1,8,1,8,{32}1,2,3,4,5,6,7,8,
1,2,3,4,5,6,7,8,{4}5/1bp3[8:1],{16}7,{8},{16}1,{8}2>5[8:1],8-4[8:1],
2,8,{4}1p3[8:1],{16}6,{8},{16}8,{8}1>4[8:1],7-3[8:1],
1,7,{4}1p3[8:1],{16}5,{8},{16}7,{8}8>3[8:1],6-2[8:1],
8,6,{4}1p3[8:1],{16}5,{8},{16}8,{8}1-5[8:1],5-3[12:1],
1,7,8q6[8:1],8,{16}2,{8},{16}8,{8}7<4[8:1],1-5[8:1],
7,1,8q6[8:1],8,{16}3,{8},{16}1,{8}8<5[8:1],2-6[8:1],
8,2,8q6[8:1],8,{16}4,{8},{16}2,{8}1<6[8:1],1,
{16}5,4,3,2,{8}1/8q6[8:1],8,{16}4,{8},{16}1,{8}8-4[8:1],4-6[12:1],
8,2,{16}1,2,{8}3h[8:1],{16}8,7,{8}6h[8:1],{16}2,3,{8}4h[8:1],
{16}7,6,{8}5h[8:1],{16}3,4,{8}2h[8:1],{16}6,5,{8}7h[8:1],{16}3,4,{8}2,
5b/1b,3b/7b,{16}6,7,{8}8h[8:1],{16}3,2,{8}1h[8:1],{16}5,6,{8}7h[8:1],
{16}4,3,{8}2h[8:1],{16}7,8,{8}6h[8:1],{16}2,1,3,8,4,3,2,1,
7,6,5,4,3h,4,2,5,3,4,2,5,3,4,2,5,
3,4,1,8,5,6,4,7,5,6,4,7,5,6,4,7,
5,6,1,8,2,7,1,8,2,7,4,5,2,7,1,8,
2,7,4,5,{8}3/6,3/6,2/7,2/7,{24}1b,2,3,8b,7,6,
2b,3,4,7b,6,5,{8}1b-3[8:1],6,1,4-8[8:1],2,4,
1-3[8:1],6,1,4-8[8:1],2,4-8-4[4:1]*-8-4[4:1],1-3[8:1],6,
{4}1,{8}5,6,7-3[8:1]*-3[8:1],8,1-5[8:1]*-5[8:1],2,
7<4[8:1]*<4[8:1],6,1>4[8:1]*>4[8:1],8,7qq4[8:3]*qq4[8:3],8,1v4[8:1],1,
{4}1,{8}8-6[8:1],3,8,5-1[8:1],7,5,
8-6[8:1],3,8,5-1[8:1],7,5-1-5[4:1]*-1-5[4:1],8-6[8:1],3,
{4}8,{8}4<7[8:1]*<7[8:1],3,2,1>4[8:1]*>4[8:1],8,7,
6<1[8:1]*<1[8:1],5,4,3<6[8:1]*<6[8:1],2,1,1>4[8:1]*>4[8:1],8v5[8:1],
1-7[8:1],8,1,6-2[8:1],3,6,1-7[8:1],5,
1,6-2[8:1],3,6,1-7-1-5[8:3],1,{4}6-2[8:1]*-2[8:1],
6x,{8}3,4,5,6,7/2h[8:1],8,
7/2h[8:1],6,7/2h[8:1],5,7/2pp5[8:3],4,2/8v5[8:1]*v5[8:1],8,
{4}8-2[8:1],{8}8,3-7[8:1],6,3,8-2[8:1],4,
8,3-7[8:1],6,3,8-2-8-4[8:3],8,{4}3-7[8:1]*-7[8:1],
3x,{8}2b>5[8:1]*>5[8:1],1,2,8,7b<4[8:1]*<4[8:1],8,
7,1,2b/8b,8/2,7b/1b,7/1,{24}7b,6,5,2b,3,4,
{32}8b,7,6,5,1b,2,3,4w8[32:17],{1},{8}2h[4:1],
3,4,1h[4:1],5,4,
2h[4:1],3,4,1h[4:1],5,4,2,3,
{4}4/1,8<1[4:7],E1,E2,
E3,4>1[4:3],E5,E6,
E7,{8}7h[4:1],6,5,8h[4:1],4,5,
7h[4:1],6,5,8h[4:1],4,5,7,6,
{4}5/8,1>8[4:7],E1,E8,
E7,5<8[4:3],E5,E4,
{1}E3,
