&title=曇天
&artist=氏原ワタル feat. DOES
&first=-0.807
&des=Sak1m!
&clock_count=4
&lv_5=13.5
&des_5=Sak1m!
&inote_5=
(178.3){16},,,,,,,,,,{8},,,,,,,,,,,,,,,,,,,{1}6/5,
4/3,
{2}7/8,1/2,
{4}8/1,7/2,{16}1,8,2,7,3,6,4,5,
(188.5){8}4w8[0.3183##0.6364],(188.5157),(188.5314),(188.5471),(188.5628),(188.5785),(188.5942),(188.61),
(188.6257)5w1[0.3181##0.636],(188.6414),(188.6571),(188.6728),(188.6885),(188.7042),(188.7199),(188.7356),
(188.7513)1/8<5[0.3179##0.6356],(188.767),(188.7827)2,(188.7984),(188.8141)3,(188.8298),(188.8456)4,(188.8613),
(188.877)5/4>1[0.3177##0.6351],(188.8927),(188.9084)6,(188.9241),(188.9398)7,(188.9555),(188.9712)8,(188.9869),
(189.0026)6,(189.0183)5,(189.034)B7,(189.0497)5,(189.0654)3,(189.0811)4,(189.0969)B2,(189.1126)4,
(189.1283)6,(189.144)5,(189.1597)8,(189.1754)5,(189.1911)3,(189.2068)4,(189.2225)1,(189.2382)4,
(189.2539)1>4[0.317##0.6339]/4<7[0.317##0.6339],(189.2696),(189.2853),(189.301),(189.3168),(189.3325),(189.3482),(189.3639),
(189.3796)7/4,(189.3953),(189.411)4/6,(189.4267),(189.4424)4/5,(189.4581),(189.4738)4/5h[#0.1583328],(189.4895)3,
(189.5052)5/3h[#0.1583061],(189.5209)6,(189.5367)3/6h[#0.1582813],(189.5524)2,(189.5681)6/2h[#0.1582546],(189.5838)7,(189.5995)2/7h[#0.1582279],(189.6152)1,
(189.6309)1/8,(189.6466),(189.6623)8-4[0.3163##0.3163]/1-5[0.3163##0.3163],(189.678)7/2,(189.6937)8/1,(189.7094),(189.7251),(189.7408),
(189.7565)5/4,(189.7722){16}4,5,(189.788){8}4/6,(189.8037),(189.8194)5/3,(189.8351)4,(189.8508)5/3,(189.8665),
(189.8822)6/4,(189.8979)5,(189.9136)6/4,(189.9293),(189.945)3/1,(189.9607)2,(189.9764)3/1,(189.9921){16},(190),
{4}3h[4:1],2h[4:1],1h[4:1],8h[4:1],
7h[4:1],6h[4:1],5h[4:1],4h[4:1],
{1}3<8[16:23],
{4}4,5,6,7,
{8}7/8,6/1,{4}5/2,{8}2/1,3/8,{4}4/7,
{8}1/8,7/2,{4}6/3,{8}5/4,6/3,{4}7/2,
{8}2/7h[4:1],3,{4}4,{8}7/4h[4:1],6,{4}5,
{8}4-7[8:1]/5-1[8:1],6/3,,,8-4[8:1],7/1,,,5-7[8:1]/3-1[8:1],
6/2,{4}5/3,{8}6-8[8:1]/4-2[8:1],7/3,{4}6/4,
{16}1s5[8:1],5,3,7,{4}1,{16}8s4[8:1],4,{8}6,{4}2,
5b-8[0##16:1],1b-4[0##16:1],7b-2[0##16:1],3b-6[0##16:1],
5h[8:7],{8}8,2,7,3,6,4,
5/4,5<4[8:3]/4>5[8:3],{4}A5/D5/A4,,,5h[4:7],
1-7-2-6-3-5[4:5],A1,A7,
A2,A6,A3,E5,
{8}5/3,4,4/2,3,3/1,2,2/8,1,
1/7,8,8/6,7,7/5,6,6/4,5,
{4}5-2[4:1],2-7[4:1],7-4[4:1],4-1[4:1],
{8},,,,1/5,B1/B5,2/6,B2/B6,
3/7,B7/B3,8/4,B8/B4,7/3,1,6/2,8,
7-5[4:1]/2-4[4:1],1/8,,,,5/4,{16}B5/B4,B6/B3,B2/B7,B8/B1,
8x,7x,6x,5x,1x,2x,3x,4x,7x,6x,5x,4x,2x,3x,4x,5x,
{8}6x/5x,6/5,5/4,5/4,4/3,4/3,5/4,5/4,
{16}4,5,4,5,3,6,3,6,2,7,2,7,1,8,1,8,
1,2,3,4,5,6,7,8,{32}1,2,3,4,5,6,7,8,1,2,3,4,5,6,7,8,
1,2,3,4,5,6,7,8,8x/1x,2x/7x,6x/3x,5x/4x,,,,,{2}Ch[16:7],
{8},1-5[8:1],2/8,1,,8-4[8:1],1/7,8,
,7/2-5[8:1],,2/7-4[8:1],,7,,,,5/4,
4-8[2:1],6-2-4-8[8:3]/2-6-4-8[8:3],{16},,,,,,,,,,,8-4[8:1]/1-3[8:1],
,,,8-6[8:1]/1-5[8:1],,,,8/1,,,,,,,,,6,
7,8,1x-6[8:1],4,3,2,1x-4[8:1],,,,,,,,6/3,
,3,,3/6,,6,,7b/2b,,5b/4b,,8b/1b,
,,,2/3<6[2:1],,,,1,,,,8,,,,7,
,,,6/7>2[2:1],,,,5,,,,4,,,,3,
,,,2-4[8:1],,2,,7-5[8:1],,,,2-4[8:1],,2,,8-5[8:1],
,,,2-4[8:1],,2,,1-4[8:1],,,,,,,,,,,,7-5[8:1],
,7,,2-4[8:1],,,,7-5[8:1],,7,,1-4[8:1],
,,,7-5[8:1],,7,,8-5[8:1],,,,,,,,,,,,4/5h[16:7],
,4,,4,,4,,5/4h[16:7],,5,,5,
,5,,3/6h[16:7],,3,,3,,3,,6/3h[16:7],,6,,6,
,6,,4,5,4,5,4,5,4,5,4,5,4,5,4,
5,4,5,4,5,6bh[16:19]/3bh[16:19],{1},{4},,,{8}5/7,
7/5,8,1,4/2,4/2,1,
8,7/5,7/5,8,1,4/2,4/2,1,
8,1/8,2,8/1,B2,8/1,7,8/1,
B7,1/8,3,8/1,B3,8/1,6,8/1,
B6,4/5,3,5/4,B3,5/4,6,5/4,
B6,5/4,2,5/4,B2,5/4,7,5/4,
B7,7bx<2[8:5],{4}Ch[4:7],
E
