&title=Chronicle and Scarlet
&artist=神尾光临/miko/Avalon
&first=0
&lv_5=14
&des_5=KAMI TaiL vs mMmMk vs kUsa
&inote_5=(160){1},
{16},,,,,,,,,,,,,,,,
{16},,,,,,,,,,,,,,,,
{16},,,,3xh[16:3],,,1xh[16:3],,,7xh[16:3],,,5x,,,
{16}2xb/4x,,17,,4>6[4:1]`5V36b[4:1],,2x/6x,,,,,,,,,,
{16}D1h[2:1]/E1/C,,,,,,,,E8/D8,,,,,,,,
{16}E1h[2:1]/C/D1,,,,,,,,E7/D7,,,,,,,,
{16}D1h[2:1]/E1/C,,,,,,,,E6/D6,,,,,,,,
{16}E1h[2:1]/D1/C,,,,,,,,5xv4[8:1],,,,,,,,
{16}D1h[2:1]/E1/C,,,,,,,,E4/D4,,,,,,,,
{16}E1h[2:1]/C/D1,,,,,,,,E3/D3,,,,,,,,
{16}D1h[2:1]/E1/C,,,,,,,,E2/D2,,,,,,,,
{32}E6f,B5,B4,E4,{16},,,,,,2h[2:1],,,,,,,,
{16}8,,8,,7-3[8:1],,,,1,,2-8[8:1],,,,7,,
{16}6-4[8:1],,,,4,,3-7[8:1],,,,5,,6,,6,,
{16}1,,1,,2h[8:2],,1,,8,,7h[8:2],,5,,4,,
{16}3>8b[8:1],,5,,7h[4:1],,,,1x>5b[8:1]*q5b[8:1],,,,,,,,
{16}7,,4,,6-2[8:1],,,,2,,3-5[8:1],,,,8,,
{16}7-5[8:1],,,,3,,4-8[8:1],,,,7,,6-4>5-3[4:3]*p3b[4:3],,,,
{16},,,,,,,,,,,,,,,,
{16}18,,2,1,3,,7,8,6,,3,,6>7b[4:1],5,7,,
{16}6b/E3f/B2/B3,,,,,,,,1x>4[8:1]/8x,,,,6,,6,,
{16}7h[4:1],,5,,4,,2h[4:1],,4,,5,,7^4[8:1],,,,
{16}2,,2,,3,,6,,4>1[8:1]/5,,,,7,,7,,
{16}6,,8,,7^4[8:1],,,,2,,2h[4:1],,{24}B4,B5,B6,{16}B7,,
{16}8x/4x,,8x,,7/B2/B3,,6,,1x/5x,,1x,,2/B7/B6,,3,,
{16}8x,4,8,4,6h[8:1],,1x,5,1,5,3h[8:1],,1x,2,1,2,
{32}8xb/3x,7,6,5,{16},1x/7x,,,5x/6x,,{32}7xv5[8:1]/4xbqq2b[8:1],,,,{16},,C,,,,
{16}1,,1,,{24}8,,,3,4,5,{16}6xb/Cf,,,,,,,,
{16}5^8[8:1],,2,,3,,4h[4:1],,,,1,,C,,,,
{16}4^1[8:1],,7,,6,,5h[4:1],,,,8,,C,,,,
{16}5x/4x,,4,,6,,2,,4x/3x,,3,,5,,1,,
{16}3x/2x-5^3-6[8:3],,2,,1,,8h[8:2],,,,,,8,,,,
{16}7^4[8:1]/3,,2,,1,,8h[4:1],,,,3,,D5/E5,,,,
{16}2^5[8:1]/6,,7,,8,,1h[4:1],,,,6,,D5/E5,,,,
{16}4x/5x,,5,,3,,7,,5x/6x,,6,,4,,8,,
{16}6x/7x-3[8:1],,7,,8,,,,1h[16:3],,,3h[16:3],,,2h[4:1],,
{32}3xpp5>1[8:3],D4,A4,D5,A5,D6,A6,D7,A7,D8,A8,,,,,,{16}7qq5qq4[8:3],,,,E1h[2:1]/B1h[2:1]/B8h[2:1],,,,
{16},,,,5xw1[8:1],,,,Cf,,,,7h[4:1],,,,
{32}6xqq5<8[8:3],D6,A5,D5,A4,D4,A3,D3,A2,D2,A1,,,,,,{16}2pp4pp5[8:3],,,,E1h[2:1]/B8h[2:1]/B1h[2:1],,,,
{16},,,,4xw8[8:1],,,,Cf,,,,2h[8:1]/7h[8:1],,,,
{24}8xv3[8:1]/3x,1,2,3,4,5,{16}6V47[16:3],,,,1x,,{16},,2x,,6x,,
{24}1xv6[8:1]/5x,8,7,6,5,4,{16}3V52[16:3],,,,8x,,{16}7,,7,,1,,
{16}8-4b[8:1],,,1,8,,2,,3x-6-8[8:1]/5x-2-8[8:1],,,,3x/5x,,,,
{16}1x/7x,,,2x/4x,,,5x/6x,,4xb>1[8:1]/8xb<5[8:1],,,,4b/8b,,,,
{16}15,,3,4,2,,6,5,8h[8:1],,,5h[8:1]/7h[8:1],,,46,,
{16}37,,6,5,7,,3,4,1h[8:1],,,8h[8:1]/6h[8:1],,,73,,
{16}4/8h[8:1],,5,7h[8:1],,1,6h[8:1],,2h[8:1],,4,3h[8:1],,8,4,,
{16}6v1<4[16:5],,,,,,,,,,,,35,,6,,
{16}84,,7,5,6,,3,5,1h[8:1],,,4h[8:1]/2h[8:1],,,35,,
{16}26,,2,4,3,,6,4,8h[8:1],,,1h[8:1]/3h[8:1],,,26,,
{16}5/1h[8:1],,4,2h[8:1],,8,3h[8:1],,7h[8:1],,5,6h[8:1],,1,5,,
{16}34,,25,,1>4[8:1],6,3,,1xb/5xb,,,7xbv4b[8:1],,,8xb/7xb,,
{16}E2/D2/A2h[4:1],,,,E6h[4:1],,,,E7/D7/A7hf[4:1],,,,A4,,,,
{16}E3/D3/A3h[4:1],,,,E8h[4:1],,,,E6/D6/A5hf[4:1],,,,A2,,,,
{16}8hb[32:1],,,,1,7,1,7,1,8,1,8,1,1,1v8b[8:1],1,
{16},,,,,,,,1-6b[8:1]/7-3b[8:1],,,,1b/7b,,,,
{16}2,1,3,8,2,,7,8,6,1,7h[8:1],,2,3,4,5,
{16}7,8,6,1,5,,2,1,3,8,2^5[8:1],,7,,2,,
{16}7,6,4,3,6,5,3,2,7,6,4,3,1,8,7,6,
{16}2,4,3,5,4,,7,5,6,4,5,,18,,27,,
{16}7,8,6,1,7,,2,1,3,8,2h[8:1],,7,6,5,4,
{16}2,1,3,8,4,,7,8,6,1,7<4[8:1],,2,,7,,
{16}2,3,5,6,3,4,6,7,2,3,5,6,8,1,2,3,
{32}8b,7,6,5,4,3,2,1,{16}8x/4x-1b[8:1],,6bV85[16:3]/2b,,,,,,{64}D1,A1,D2,A2,D3,A3,D4,A4,,,,,,,,,
{16}8,5x,6,4,7,,1,4,3,5,2,,8,7,6,5,
{16}1,4,3,5,2,,8,5,6,4,7<4[8:1],,5,,7,,
{16}3,2,8,7,2,1,7,6,3,2,8,7,4,3,2,1,
{16}6,8,7,5,7h[16:1],,3,1,2,4,2h[16:1],,{32}5bx,6x,7x,8x,,,,,
{16}5,7,3,5,1h[8:1],,4,2,6,4,8h[8:1],,5,7,5,7,
{16}2,4,2,4,8,6,8,6,3,1,3,1,5,6,5,6,
{16}2-6b[8:1],,5-1[8:1],,2b,,5b,,4-8b[8:1],,7-3[8:1],,4b,,7b,,
{32}2x,1,8,7,6,5,4,3,{16}2x^5q1[4:1],,6bxp2b[8:1],,,,,,D2f/A1/A2,,,,
{16}1x^7[16:2],,,,1xpp3b[16:3],,,,A1f,,,,5xh[8:1],,,,
{16}4,,6,,5xqq4b[16:4],,,,E7f/B6/B7,,,,,,,,
{16}8h[4:1],,,,2h[4:1],,,,A4f/E4/E5,,,,6,,2,,
{16}4,,2,,8-6[8:1]*-5[8:1],,,,{48}8xb^3[8:1]*q4[8:1],,,{16},,,{48}A8f,,,{16},,,
{16}5^7[16:2],,,,5xqq3b[16:3],,,,A5f,,,,8xh[8:1],,,,
{16}1,,7,,8xpp1b[16:4],,,,E7f/B7/B6,,,,,,,,
{16}5h[4:1],,,,3h[4:1],,,,A1f/E1/E2,,,,3,,7,,
{16}1,,1,2,{16}4qq3[16:3]/3,,1bh[8:3],,,,,,{32}4xb,5x,6x,7x/3x,,,,,
{16}2-5[8:1],1,3,,8b/2b,,7-3[8:1],8,6,,7b/1b,,2,,2,,
{16}7-4[8:1],8,6,,1b/7b,,2-6[8:1],1,3,,8b/2b,,7,,7,,
{16}5,4,7,6,4<7[24:3],3,6,5,{24}8b,1x,2x,3x,4x,5x,1b,8x,7x,6x,5x,4x,
{16}2-5[8:1],1,3,,2b/8b,,7-3[8:1],8,6,,7b/1b,,E2f/B1/B2,,,,
{16}5,3,7,5,1h[8:1],,4,6,2,4,8h[8:1],,5,3,7,5,
{24}1x,8,7,5x,4,3,6x,7,8,2x,3,4,2b/5x,1,8,7,6,5,1b/4,8,7,6,5,4,
{16}3x/7b,,6/4x,,3/5x,,2/4x,,1/3x,,2x/8,,1x/7,,8xh[8:1]/6,,
{32}4xV61[16:3],3,2,1,8,7,6,5,{16}4x/3x,,2bw6[8:1],,,,Cf,,,,,,
{16}5x,,,,5,,,,5,,,,5,,4p2[2:1],,
{16}6,,,,6,,,,6,,,,6/2x,,,,
{16}7/1,,,,2,,5,,4,,,,73,,,,
{16}5/4^1[8:1],,,,6,,,,7q4[8:1]/8q4[8:1],,,,,,,,
{16}63,,,,6,,5,,6,,4,,6,,,,
{16}35,,,,3,,4,,3,,5,,36,,,,
{16}1qq2[2:1]/7qq6[16:5],,,,,,,,,,,,,,,,
{16}3,,6,5,7,,3,4,2,,81,,2-5[8:1]/7-4[8:1],,,,
{16}27,,,,3,,5,,7/E1/D1,,,,6,,4,,
{16}2/E1/D1,,,,7,,7/E6/B5/B6,,,,1,,1/B3/B4/E4,,,,
{16}2V46[4:1]/6,,,,6V82b[4:1],,,,2>6[4:1],,,,6,,,,
{16}8bp4[8:1]*q4b[8:1],,,,8b,,,,3b^8[8:1]/7b^4b[8:1],,,,3b/7b,,,,
{16}1/5,,2/4,,3/5,,4/6,,8,2,7,1,7,8,6,4,
{16}5,3,5,3,1h[8:1],,4,6,4,6,8,5,8xh[16:24],,4x,4xh[16:21],
{16},,,,,,,,,,,,,,,,
{16},,,,{48}E1/E5,B1/B5,Cf,B2/B6,E3/D3/E7/D7,,,,,,,,,,,,,,,,,,,,{16},,,,
{16}D1h[2:1]/E1/C,,,,,,,,E2/D2,,,,,,,,
{16}E1h[2:1]/C/D1,,,,,,,,E3/D3,,,,,,,,
{16}D1h[2:1]/E1/C,,,,,,,,E4/D4,,,,,,,,
{16}E1h[2:1]/D1/C,,,,,,,,4xv5[8:1],,,,,,,,
{16}D1h[2:1]/E1/C,,,,,,,,E6/D6,,,,,,,,
{16}E1h[2:1]/C/D1,,,,,,,,E7/D7,,,,,,,,
{16}D1h[2:1]/E1/C,,,,,,,,E8/D8,,,,,,,,
{32}7x-1-6-2-5-3b[4:3],B1,Cf,B5,,,,,,,,,,,,,{2},
{1},,E
