&title=装b
&artist=Billionhappy
&first=0.05
&des=Odelxs
&lv_5=13+
&inote_5=(133)
{8}
,
6h[4:1]/2q5[2:1],,,,,,,,
3h[4:1]/7p4[2:1],,,,,,,,
1h[100:75]/5h[100:75],,,,,,,,
7-3[2:1]/3h[100:75],,,,,,,
,87,4,12,5,87,5,12,4,
2-7[8:1],2h[8:1]/7-4[8:1],
4-8[8:1],
,,,E7`B6`B5,C,B1`B2`E3,
1-7[8:1],2-4[8:1],1-6[8:1],2-5[8:1],
,,,,
E5/E6/B5/B4/E4/B6/Ch[8:1]f/B3/E7/E3/B7/B2/B8/B1/E8/E2/E1,
,,,,,,
65,1,34,8,
64,8,35,1,
7w3[10:8],7h[8:1],8,6,1,5,2,4,,
1s5[8:1],B7`B6,B2`B3,
4z8[16:1],B6`B7,B3`B2,
1,24,3,46,5,68,7,81,2,
{16}
1,8,1-5[8:1],,1,,8,,
8,1,8-4[8:1],,8,,1,,
1q7[8:1],8,7-5[8:1],,1/5-8-4-2[20:8],
,,,,,,,,,,,1h[16:1],2,8h[4:1],,7,6,5,
,
{8}84,15,84,15,
{16}
8-2-4[8:1],7,6b<2b[8:1],5,4-6-8[4:1],,,,2b>6b[4:1],
,,,,,,,
7-5[8:1],,,,7/8-2-4[4:1],,E5,,4-1-7[4:1],,B4,,7-2-4[4:1],,C,,,,B6,,
B5/B4,
,
B3,,B2,,B1/7v1[8:1],,1-4[8:1],,4v6[8:1],,6-3[4:1],,,,,,,,
2h[8:1],,1,,8,,7h[4:1],,,,,,,,7z3[4:1]/7bs3b[2:1],,,,,,,,
3>3[1:1],
,,,,,,,,,,,,,,,,,,,2,,1,,8,,7h[2:1],,,,5,,4,,3h[1:2],,,,
B2,,B6`B5,,,,B1,,B5`B4,,B8,,B4`B3,,B7,,B3`B2,,B6,,B2`B1,,B5,,B1`B8,,
B4,,
4<5-7>8-2>3-5-7-1-3-6-1[1:2],,,,,,,,,,,,,,,,,,,,,,,,,,,,,,,,C,
,,,B5,,B6,,,,B2,,E8,,E4,,C,,E2,,E6,,B4,,E8,,D2,,E7,,B3,,
5h[8:1],,1h[16:1],,5h[8:1],,1h[32:1],,5h[8:1],,1h[64:1],,5h[8:1],,1h[32:1],,5h[8:1],,1h[16:1],,5h[8:1],,1h[8:1],,5,,6,,7,,8,,
{32}
1,2,3,,4h[100:80],,,,8<7<6>5>4>3>2[2:1],,,,8,,,,8,,,,7,,,,6,,,,5,,,,1,8,7,
,1h[100:80],,,,5<6<7>8>1>2>3[2:1],,,,5,,,,5,,,,6,,,,7,,,,8,,,,3,4,5,,
{16}
4/6-1-3[8:1],,81,,3-8-6[8:1],,81,,6-1-3[8:1],,,,,,C,,6-1-3[8:1],,81,,3-8-6[8:1],,81,,6-1-3[8:1],,,,,,C,,
1/7-4-2[8:1],,54,,2-5-7[8:1],,54,,7-4-2[8:1],,,,,,C,,7-4-2[8:1],,54,,2-5-7[8:1],,54,,7-4-2[8:1],,,,,,C,,
B8/B1,,
E5,,
B5/B4,,
C,,
B8/B1,,
E5,,
B5/B4,,
8,1,8,1,8,1,8,1,
{32}
8,7,6,5,4,3,2,1,87,1,2,3,4,5,6,7,8,
{16}1h[8:1]/6-8[8:1],,6-8[8:1],6-8[8:1],,6-8[8:1],6-8[8:1],,
,,,,,,
{32}
1-3-1[4:1]/3,8,7,6,,,2,,1-5[8:1],,,,
,,,,
,,,,,,,,1-7-5[8:1]/5,,,,4b-2-8b[4:1]/8,,,,,,,,,,,,,,,,,,
,7bh[20:17],
,,,,,,,,,,,,,,,,,,,,,,,,,,,1b,,,,3b,,,,,,,
6b,,,4b,,,,,,,,3b,,,,,5b,,,,
E5,B4,C,B8,E1,,,,,
B5,B4,C,B2,B1,,,,,
E5,B4,C,B8,E1,,,,,
E5,B5,C,B7,B8,,,,,
8h[20:12]/1b-3-5-7-1>2-4<5-7>8-2b[20:12],
,,,,,,,,,,,,,,,,,,,,,,,,,,,
8-6>5[8:1],,,,1,,,,5>4-2[8:1],,,,1,,,,8-6>5[8:1],,,,1,,,,5>4-2[8:1],,,,1,,,,
7-5>4[8:1],,,,8,,,,4>3-1[8:1],,,,8,,,,7-5>4[8:1],,,,8,,,,4>3-7[8:1],,,,8,,,,
,,,,,8bh[4:1],,,,1,2,3,4,5bh[4:1],,,,6,7,8,1,2bh[4:1],,,,3,4,5,6,7bh[4:1],8,1,2,3,4,5,6,8,1bh[8:1],
,,,,,
E1`B8`C`B4`E5,,,,,,,,,,,,,,,,,,,,,,,
8,7,6bh[8:1],,,4,3,2bh[8:1],,,5,6,7bh[8:1],,,1,2,3bh[8:1],,,8,7,6bh[8:1],,,4,3,2bh[8:1],,,5,6,7bh[8:1],,,1,2,3bh[8:1],,,
8,7,6bh[8:1],,,4,3,2bh[8:1],,,5,6,7bh[8:1],,,1,2,3bh[8:1],,,8,7,6bh[8:1],,,4,3,2bh[8:1],,,
1-7b[8:1],,,,1-6b[8:1],,,,1-5b[8:1],,,,1-4b[8:1],,,,1-3b[8:1],,,,1-4b[8:1],,,,1-5b[8:1],,,,1-6[2:1],,,,
,,,,,,,,,,,,,,,,,,,,,,,,,,5h[4:1]/2>3-5-7[4:1],,,,,,,,7<6-4>3[4:1],,,,,,,,3-5<6-8[4:1],,,,,,,,8-2-4[4:1],,,,,,,,4-6-1[4:1],,,,,,,,1<5[4:1],,,,,,,,5-3-1[4:1]/1<5[4:1],,,,,,,,1>5[40:5]/5-7-1[4:1],,,,,,,,,,,,,,,,5h[8:1]/1-7-5[4:1],,,,,,,,1-3-7[4:1]/5<1[4:1],,,,,,,,1>5[4:1],,,,,,,,1s5[4:1],,,,,,,,1<1[2:1],,,,,,,,,,,,,,,,
1<7-3[4:1]/1-4[4:1],,,,,,,,,,,,,,,,
,,,,1-7<5[4:1]/2h[4:1],,,,,,,,5>3-8[4:1],,,,,,,,8-6>4[4:1],,,,,,,
,8-4[4:1],,,,,,,,4>8[8:1]/8-4[8:1],
,,,,,,,,,,,,,,,
8h[8:1]/4,,,,6,,,,
7/1h[8:1],,,,5,,,,
8h[8:1]/2,,,,6,,,,
1h[8:1]/7,,,,3,,,,
{16}
2,8,3,7,1,7,8,6,7h[8:1],
{32}
8b,1,2,3,1b,2,3,4,
5bh[8:1]/1z5s1[1:4],,,,,,,,
5bh[2:1],,,,,,,,,,,,,,,,,,,,,,,,,,,,,,,,7bh[2:1],,,,,,,,,,,,,,,,,,,,,,,,,,,,,,,,
5bh[2:1],,,,,,,,,,,,,,,,,,,,,,,,,,,,,,,,3bh[4:1],,,,,,,,,,,,,,,,4,,,,,,,,5,,,,,,,,
3b-1-7-2-8-6-1b[1:4]/7-5-3-6-4-2-5[1:4],
E
