&title=Surveiller et punir
&artist=cybermiso
&first=-1.076
&des=LanyC
&lv_5=14+
&des_5=LanyC
&inote_5=
(145){4},,,,{2}6h[4:1]/2>5[8:1],
3h[4:1]/7<4-8[32:7],
{16}2,1,3,4,{4}2-6<1[4:1],2/1>4-2[16:3],5h[8:1],
{8}8x-4-7[16:3],6/5,,2,3b/1b,2/4,5/3,6/4,
{16}3,6,3,6,2,7,1,8,{32}D8,A7,D7,A6,D6,A5,D5,A4,{4}2,
{16}1,1,7-4[16:1],7,,,1,1,3>5[4:1],3,,,{4}2h[8:1],
{16}B3/B4,,,B8/B7,,,{8}E2/5pp3[4:1]*pp4[4:1],,,,,{4}2,
1>3[16:1],{16}8,D4,,,{4}7>1[16:1],
7/5,4<6[16:1],3,{8}2,7,
6/8>3[8:1],5,{4}4<7[8:1],4>1[8:1],4/8,
{8}8/6h[8:1],4,{4}7-3-5-8[8:3]/2-6-4-1[8:3],{2}7/2,
{8}6,6/1,3v8[16:1],7-5[16:1],3-1[16:1],7v4[16:1],3,7,
2,7/1,2-7[16:1],6>4[16:1],2<8[16:1],6-3[16:1],2,6,
{16}1,1,3,3,4,4,7,7,5,6,4,8,3,6,{8}2h[8:1],
4b,{16}6<1[16:1],3,{8}3<6z2[8:3]*<6z2[8:3],6,{4}3,A8,
1h[8:1],{8}2s6[4:1],8,{4}6>2[4:1],B7,
{8}6,{16}3,5,{8}3,2/4,{2}7h[4:1]/1-4-8[8:1],
{16}2/7,,,1h[16:1],{8}8,{16}8h[16:1],7,{2}6>8[16:3]/1>7[16:3],
{8}B7,{16}E3,B3,{8}B4,1qq5[4:1],1/3,B4/A4,{4}B2/A2,
3>6<3[2:3],5h[8:1],4h[8:1],4h[8:1],
{8}5,5h[16:1],5,5,6,7,{16}8,8,4,4,
{32}6/2w6[16:1],1,8,7,6,5,4,3,{4}2/C/B2/B6,{16}3h[8:1],,,1h[8:1],{8}2,4/6,
8/2h[16:3],{32}8b,7,6,5,{16}4,2,1,3,2x,2x,2x,2x,{8}3/1,C/E5/B5/B4,
6-3[16:1],8,{4}6/1<6<1[4:1],1/4-7-4[4:1],4,
{32}8-3[16:1],1,{16}2,,,{4}8/7,{16}5/4b,,,8/6b,,,{8}3/1b,
{16}2,4,{8}3,{16}7pp2[8:3],5,{8}6,{4}7/3-5[8:1],3,
A1/E1/B1/E2,{16}6,5,{8}6h[16:1],{16}4b/8h[8:1],,,3b/7h[8:1],,,{8}1b/5h[16:1],
3-6[16:1],2,{4}3/8>3>8[4:1],8/5-2-5[4:1],5,
{32}1-6[16:1],8,{16}7,,,{4}2/1,{16}4/5b,,,2b/7,,,{8}1/8b,
{4}3h[16:3],{16}6,5,7,4,{4}3-1[16:1]/8-4[16:1],3/8,
{8}E7/A6/B6/E6,4,{16}1,2,8,3,{2}4-8-3[16:3]/7-5-1[16:3],
{8}B3,B4,B5,B6,{4}7/8-5[16:1],8/1,
{8}B2,B1,B8,B7,{16}6,5,,5,{8}4,{16}4,3,
{8}5/2,7,8<5[8:1]*>3[8:1],1,{2}8v5[8:1]*v3[8:1],
{8}4-7[8:1],3,2,1,{16}5,4/6h[8:1],,2,{8}3/1h[8:1],E4,
7-3[16:1],1>4[16:1],7,1,{16}6x,4x,5,3,7,4,5,2,
{4}3/1-6[16:1],1/3-8[16:1],{16}3/6-3[16:1],,,8,{4}6/8,
{8}4/2,3/1,2/8,3/7,6/4,8/2,3/5w1[16:1],1/7,
A5,,,,,,,C,
{2}6pp1b[8:13],1-4[16:1],
2-5[16:1],3-6[16:1],
3qq8b[8:13],8-5[16:1],
7-4[16:1],{4}6xh[8:1],5>2[4:1],
2x-6[4:1],6x<1[4:1],{2}1xp4[4:1],
{8}2<7[4:1],2,7qq4[8:3],7,{2}E6/D6,
{8}8,{16}7,6,{8}5/1,4,3/7,2,{4}2-7[16:1]*-5[16:1],
,6x,{16}C,C,C,C,{4}B7/B6/B2/B3,
{16}1b,1,1,1,1b,1,1,1,2b-7[16:1],,,2,,,{8}6-4-7[16:3],
{16}4,6,,8,,,{8}C,{16}2,1,{8}3h[16:1],{16}7,8,{8}6h[16:1],
{16}4bx/5x,5/4,5/4,5/4,4b/5b,4/5,4/5,4/5,{2}4/5bpp8[4:1],
{16}3h[8:1],,,4h[8:1]/7h[8:1],,,{8}5h[16:1]/2h[16:1],{16}6h[8:1],,,4h[8:1]/8h[8:1],,,{8}6h[16:1]/2h[16:1],
{16}4,2,8,5,6-1-4-7[4:1],5,8,4,{2}6/3-8-6[8:1],
{16}5,7,1,4,3,4,1,5,{8}4bx/3bx,8b/7b,5b/6b,2b/1b,
6-4-2[4:1],1,{4}2-8-6[4:1],6>2[4:1],2-8-4-6[8:3],
{2}1h[4:1],{16}7b,5b,,2b,{8}4b,1b/8b,
{16}5>7[16:3],3,7,1,{4}5,{8}3>7[8:1]*<7[8:1],4/2,{4}3,
{16}1-5[16:1],7,3,5,{4}1,{8}3b/5bxh[16:1],7b/5bxh[16:1],3b/1bxh[16:1],7b/1bxh[16:1],
5,5/6,2<3-1-7-5[2:1],3/2,{16},,,,,,,,4,
3,2,1/8,7,6,5/4,3,{8}B7/E7/E3/B3,A8/B8/B4/A4,E7/B6/B2/E3,B5/A5/B1/A1,
{16}7x,7,3,3,6<1<6[4:1],6,,,{2}2>5>2[4:1],
{8}7b,{16}1,8,2v5b[16:1],2,{8}6v1b[16:1],2>5b[16:1],6<1b[16:1],2,6,
{4}3b-5[16:1],{8}1-5-1[4:1],8,{2}7-3-7[4:1],
{4}2bz6[8:1],2/7,{32}8-3<6[16:3],7,6,5,8,1,2,3,{4}8x,
{16}8x/7x,{32}1x,2,{16}3,5,6pp1[16:5],4,5,3,6,2,,1,,,{8}E3,
{32}4x>5[4:1],3x,4,3,4,3,{16}4,{32},,,,,,,,,,,,,,6/4h[16:3],7,{4}8-5[16:1],
{16}3bx-5[16:1],3b,3bx,3b,,,7bx-1[16:1],7b,7bx<3[16:3],7b,,,,,,,2bx-6[16:1],
,,8b-4[16:1],,,{8}8b,A1/B1,E3/D3,B4/A4,E7/D7,
1/2-5[16:1],8,2/7-4[16:1],6,7/3-8[16:1],2,3/6-1[16:1],5,
{4}6/2>6[4:1],{8}B7,B8,{4}1x<5[8:1]*>5[8:1],{32}1b,E8/E3,E7/E4,E6/E5,,,,,{8}2/8-4[16:1],
1,8/2-5[16:1],1,2/7-4[16:1],8,7/1-5[16:1],8,
{2}1-4[8:1]/5-8[8:1],{32}3x/7x,2/6,1/5,8/4,,,,,4x/8x,5/1,6/2,7/3,,,,,{16}2,
8,4,6,4,5,3,4,2-6[16:1],8,1-5[16:1],7,{8}2,1,
4-8[16:1],2/6,{4}4,{16}2-5[16:1]/6-1[16:1],2/6,,2/6,{4}6x/2x/C,
{8}3/5-1[16:1],4,5/3>8[16:1],4,3/6<1[16:1],5,4-8[16:1]/6-2[16:1],5,
{16}4/6,,,1xh[16:3],,,,,{8}4/5h[16:3],7,5/4h[16:3],2,
{32}7-3[16:1],6,5,4,3,2,1,8,{8}7/5w1[16:1],4,{16}5,,,3,{8}4,5/1,
{16}6,8,7,1,8,2,1,3,7,6b/8b,,3,{8}4b/2b,5b/6b,
{16}2w6[16:1],1/3,{8}4/8,{4}2x,{16}7w3[16:1],6/8,{8}1/5,{4}7x,
{8}5/1,{32}3x,4,3,4,{8}3,C,{4}7h[16:3]/5h[16:3],6h[16:3]/8h[16:3],
{16}7,1,5,3,8,1,7,2,{8}6/3,{32}4x,5,4,5,{8}4h[16:1],{16}6,4,
{8}3/7,{32}6x,4,6,4,{8}6<8pp4[8:3],{32}3x,5,3,5,{4}3,3h[8:1],
{8}2/1,2/3,3/4,4/5,5/6,6/7,8/7,8/1,
{16}2,2,3,3,4,4,5,5,{32}1x,8x,1,8,1,8,1,8,{4}B6/A5/B5/B4/A4/B3/E5,
{32}4bx,3,2,1h[32:11],,,{16}8,,6,,4,{32}8bx,7,6,5,{16}4h[16:5],2,,8,,6,
{32}5bx,4,3,2,{16}1h[8:3],3,,2,,3,{32}4bx,5,6,7,{16}8,5/1x,,6/2,,,3b/5b,
3,3,3,4b,4,4,4,5b-1[16:1],5,5,5,{32}6,7,8,2,3,4,,,{1}E1f/A8/E8/A1/E2/E7/E3,
E
