&title=老美のNASAはなんと凄まじい
&artist=鸣笛
&first=-0.193
&des=XingYouのNASA
&lv_5=13
&des_5=XingYouのNASA
&inote_5=
(233){4},4xh[4:1],{24},6x/3x,5x/2x,4xh[8:1]/1xh[8:1],,,,,,,,,,7x,
,,,,{8}5x,4x,{2}1x-4-8-5[4:1],
{24},1bx,,,1bx,,,1bx,,,{12}1bx<7[6:1]*>3v5[6:1],,,,,,6x,
{24},7x,,,{12}8x,1x,,,{2}2xw6b[2:1]*w6b[2:1],
{24},,,,,,,,,,,,8bx/1bx,7bx/2bx,6bx/3bx,5bxh[#0.3862662]/4xh[4:1],,,,,,,,,(300){4}Cf/B8/B1/E1,
,,5x,
5x,5x,{8},2x>4[12:1],,1x-5[8:1],
,8x-4[6:1],,7x<5[6:1],{24},,,,,,,,,,,,7xh[24:7],
,,,,,,4x,,,,,{2}2x,
{4}7x/5x,{12}5x/4x,,4x/2x,{24},,,,,,,,,,,7xh[24:1]/6xh[24:1],
,,,,,,,,,,,,,,{12}7xh[24:1]/6xh[24:1],,{4}7xh[24:1]/6xh[24:1],
{1}7x<6-8-5-1pp4[1:1],
{24},,,,,,,,,,,,,,,,,,,6x,,,{12}7x,
{24},8x,,,,,,,,,,,{2}1xs5[4:1]*z5[4:1],
{4},,1x>1[2:1],{24}A7,B7,C,B3,{12}A3,
{1},{24}8x,
,,,,8x,,,,,{12}8x,{24},,,{8}8x,{24},,{6}8x<7-5>4[4:1]*>1-3<4[4:1],
{24},,,,,,,,,,,3x,,,,{8}2x,{24},,{6}1x,
,B8/B1/B7/C/B2/B6/B3/E6/A6/B5/B4/E4/A3/E7/E3/E1f,{24},,,,,,,,,,,,,,,,,1x/6xh[24:35],
2x,3x,4x,5x,,7x,,8x,1x,2x,3x,4x,{12}5x,{24}7x,8x,1x,2x,3x,4x,{12}5x,
{24}7x,8x,1x,2x,3x,4x,{12}5x,{24}7x,8x,1x,2x,{2}3x,
{24}3xh[1:1]/A8f,A7f,A6f,A5f,{12}A4f,{24}A2f,A1f,A8f,A7f,A6f,A5f,{12}A4f,{24}A2f,A1f,A8f,A7f,A6f,A5f,{12}A4f,{24}A2f,A1f,
A8/D8/E8/B8,E7/D7/B6/A6/A7/B7,E6/D6,B5/E5/A5/D5/A4/B4,E4/D4,B3/E3/A3/D3/A2/B2,{4}1x-7-2-6-3-5[2:1],{8},,,,,,,2bx,
{24},,{12}5bx,{24},,,3bx,,,,,6bx,
,,,,1bx,,,,,{12}1bx,{24},2bx,,,,3bx,,,,{8}6bx,
{24},4bx,,,,,7bx,,,,,5bx,,,,{8}6bx,{24},,{6}3bx,
{24},4bx,,,,,{4}1bx,{24},,,,,1bx/8bx,,,,,{12}1bx/8bx,
{24},,,{8}1bx-4[6:1]/8bx-5[6:1],,1bx/8bx,{2}A4/A5/D6/D4/D5f,
{4},E8h[1:1]/A7h[1:1]/E7h[1:1]/B7h[1:1]/B6h[1:1]/D7h[1:1]/A6h[1:1],,E3h[2:1]/A3h[2:1]/B3h[2:1]/A2h[2:1]/B2h[2:1]/E2h[2:1]/D3h[2:1],
{8},,,,D1f,,,4bx-6-3-7-2-8-5[24:17],
{4},,,{16},{48},{6}B6f/A6/E6/B5/D6/A5,
{24},,,,,,,,,,,,,,,,,,,6bxh[24:5],,,,,{3}4bxh[3:1],
2bxh[24:11],{24},,,8bxh[24:7],,,,,,,,{8}6bx-8-4-2[2:1],
{4},,,{16},{48},{12}6bx/B6f,
,,,2bx/B2f,,,,{4}8bx/B8f,
{12},,,,,,,,,,,,,,3x,
5x,3x,5x,4x,6x,4x,6x,3x,5x,
3x,5x,2x,4x,3x,5x,4x,6x,5x,7x,4x,3x,
2x,1x,6x,7x,8x,1x-5[6:1],,,,,,,,,,,{3}1x<7[4:1]*>3v5[4:1],
{1},{4},,,{16},{48},{24}5bx/4bx,
,,,,,,3bx/6bx,,,,,,7bx/2bx,
,,,,,,,,,,{2}1bx>3>7-1-3[4:3]/8bx-5>4-2b[4:3],
{12},,,,,,,,,,,,,,,5bx/3bx,
,4bx/6bx,{24},,,{8}3bx/5bx,,,,,{4}1x<3v2<8[4:3],
{8},,,,,,,,A8/D8/A7/B7/B6/A6,
B8/B1/B2/B3/B4/B5/B6/B7,{4}A2/B2/E3/A3/D4/A4/B4,
{1},,{4},,{24},E5,
,,,,,,,,,,,,,,,3x<6[6:1],
,,,,,,,,,,,,,,,,{12}8xs4[2:1]/1xz5[2:1],
,,,,,,,,,,,,,,,,,,{2}8xs4[2:1]/5xz1[2:1],
{1},{4},{24},1x<7[24:5]*>3v5[24:5],
,,,,,,,,,,,,,,,,,6x-8-4-2[3:1],
,,,,,,,,,,{2}1xw5[4:1],
{1},{24}A1,
E1/E2,B8/B2,B7/B3,E7/E4,A6/A4,{8}D6/A5/D5,7x,3x,7x,3x,7x,
3x,8x,2x,7x,3x,6x,4x,5x,
4x,6x,3x,7xpp7[8:3],{1},{4},,,{16},,,6x,
,,,5x,,,,4x,
,,,3x,,,,,,6x-3[16:5]*>3[16:5],{1},,{4},,,{16},1bx,
,,,,{4}1bx,
{16}1bx,,,,,,,,,,,,,1bxw5[16:7],,,,,,,,,,,,,,,{4}B7/B8/B1/B2/E7/B6/B5/B4/B3/E3,
{8},,,,7x,1x,8x,2x,
7x,1x,8x,2x,7x,3x,6x,4x,
5x,3x,6x,2x,7x,1x,8x,1x,
8x,2x,7x,3x,6x,4x,5x,4x,
5x,4x,5x,4x,{12}5x,4bx/6bx,3bx/7bx,2bx/8bx,{6}1bx,
{12},,,{4}E1/A8/D1/A1/B8/B1/C/E5fh[2:1],,,,,{2}1bx<7b[3:1]*>3v5b[3:1],
{12},,,,,E5/B5/B4/D5,,,,,,,,,,,,,,,,{4}7bxh[4:21]/2bxh[4:21],
,,,,{2}B5/B4/E5/D5,
B5/B4/E5/D5,
B5/B4/E5/D5,B5/B4/E5/D5,
B5/B4/E5/D5,B5/B4/E5/D5,
B5/B4/E5/D5,B5/B4/E5/D5,
B5/B4/E5/D5,{12}E5/A5/D5/A4/B4/B5,C,E1,D1,A8/A1,D8/D2,
A7/A2,D7/D3,A6/A3,D4/D6/4bx-8b[4:1]/5bx-1b[4:1],{1},,,{16},,{24},{8}3x,
5x,1x,7x,
4x,6x,2x,8x,3x,5x,1x,7x,
4x,6x,2x,8x,3x,5x,1x,7x,
4x,6x,2x,8x,3x,6x,1x,7x,
4x,6xh[8:3],,,{4}3x,2x,
{16}1x,,,,,7bx,,,{2}7bx,
{4}5x-7-1b[8:3]/6x-2b[8:3],,,B5/B4/E5/A5/A4/D5,
,4bx,5bx,2bx,
7bx,1bx,{16}5bx,,,3bx,,,{8}7bx,
,4bx/6bx,{16},5bx/3bx,,,1bx/8bx,,,6bx/3bx,,,,,,,,,{4}Cf,
{12},,,4x,5x,4x,
5x,4x,5x,4x,5x,4x,3x,2x,1x,6x,7x,8x,
1x,2x,3x,4x,5x,6x,7x,8x,1x,2x,3x,4x,
5bx,4x,3x,2x,1x,8x,{2}7xs3b[4:1],
{12},,,,,,,,,,,,,,,,,7x<5[12:1],
,,8x-4[8:1],,,1x-5[6:1],
,,{6}2x>4[6:1],{12},,,,,{4}7xh[24:7],
{12},,,,6x/3x,,,2x/7x,,,,8x-6>5b[6:1]/1xv4b[6:1],
,,{6}1x/8x,,,,,{3}Ch[3:1],
E7,,7x/8x,
6x/5x,{12}4x/3x,,,2x/1x,
,,,,,,,,,{4}E8h[2:1]/A7h[2:1]/B7h[2:1]/D8h[2:1]/A8h[2:1]/B8h[2:1],
{12},,,,,,,5x/4x,,,{6}6x/7x,
{12},8x/1x,,,{3}2x-7b[4:1]/3x-6b[4:1],{1},,{4},,{16},{48},{8}7x,
2x,5x,4x,8x,1x,
6x,3x,7x,2x,5x,4x,8x,1x,
6x,3x,{4}8x<4b[4:1],{8},,,Ch[2:3],
{24},,,,,,,,,,,,,,,,,,7bx,6x,{6}5x,
{24}7bx,6x,{12}5x,{24},,7bx,6x,{6}5x,1x,{48},{16}4x,,,{8}2x,
{16},7x,,,3x,,,6x,,,{8}1x,{16},8x,,,4x,
,,6x,,,{8}2x,{16},7bx-5>3-1b[16:7],,,,,,,,,,,,,,3xh[4:1],
,,,5x,,,{8}6x,
,7x,,8x-5b[8:1],{16},,,,,,,3x/4x,
,,{8}2x/1x,,,,,{4}2xh[4:1],
{8}6bx,4x,8x,2x,{16}2x,,,6x,,,{8}4x,
{16},5x,,,{4}3x,{16},7x,,2x,,,{8}5x,
{16},3x,,,{4}E1/B8/B1/B7/B2/C/B6/E7/B3/E3/A3/A6/E6/B5/B4/E4,{16},1bx/8bx,,,,,,1bx-3q5-7>8-4-2-6b[8:11],
{1},{4},,{16},A6f,
,,,,{8}5bxh[16:5]/4bxh[16:5],
{16},,,,3bx/6bx,2bx/7bx,{8}1bxh[8:3]/8bxh[8:3],{16},,,,,,,,,4x,
,,{4}6x,2x,7x,
{16}4x,,,3x,,,{8}6x,,8x,{16},2x,,,{4}7xw3b[16:3],
{16},,,,,,,,5x,,,7x,
,,{8}1x>2-4<5b[4:1]*q5b[4:1],,,,,{4}6x,
{16}7x,,,5x,,,{8}3x,{16},7x,,,2x,,,5x,
,,{8}8x,,4xh[8:3],{1},,{4},,{8},3xh[8:17]/6xh[8:17],
{1},,,{4},,{16},6x/3x,
,,{4}6x/3x,
1x<7b[1:1]*>3v5b[1:1],,,,,,,{1}8x>2b[1:1]*<6v4b[1:1],
{16},,,,,,,,,,,,,,,,5x,
,,5x,,,{8}6x/4x,{16},3x/8x,,,,7x/5x,,,,6x/1x,
{1},,,{16},,,6xh[16:19]/3xh[16:19],
{1},{4},,{8},{1}1x<7b[16:5]*>3v5b[16:5],
{2},,,8xh[2:5],
{4},,,,,,,,,,,E7f/A7/D7/B7/A6/B6/E6/D6/D8/E8,
E3f/B2/E2/A2/D2/D3/A3/B3/E4/D4,{16}5x,,,4x,,,{8}5x,{16},3x,,,6x/4x,
,,2x/5x,,,{8}4x/7x,,,,,{4}2xh[4:1],
{16}5x,,,6x,,,{8}7x-1-5-3b[16:5],,,,2xqq7>2b[8:5],
{1},{4},,{16}4x,
,,3x,
,,{8}2x,{4}8x-6-1-5qq2b[4:3],{8},,,,,,,8x,
,7x,,2x<7-3<6b[8:3],
,,,,,C,{16},C,,,,,,E7/B6/B7/D7/A7/A6,
,,,,,1x,2x,3x,{4}4x,
{8},,,,,D7/B2/A2/E3/D3/D5/E5/B4/D6/A5/A4/D4/A3/E4/B3/A6/B5/B6/B7/A7/E7/E6,,,,,,,,6x,
{16}4x,,,5x,
,,{8}3x,{16},7x-2>3b[8:3]*<6-3b[8:3],,,,,,,,,,,,1x<7[16:5]*>3v5[16:5],
{1},{4},{8},{4}6x/4x,
5x/2x,
{16}6x/4x,,,3x,,,,,6x,,,4x,{48},,,,,,,,{24}7x/3x,6x/4x,
{48}5x,,,,,,,,,,,,,6x/2x,,5x/3x,,4xh[8:1],,,,,,,,,,,,,{8}8x-5[16:5]*>5[16:5],,,,,{4}E3,
E5,E7,
{8},,,3x/4x,{16},5x/6x,,,7x/3x,,,2x/8x,
,,,,{4}3x,{16}4x,,,6x,,,{8}2x,
{16},8x,,,5x,,,4xv2<7[16:5],,,,,,,,,,,,,{4}E4h[4:3],
,,,,5x,
6x,
{8}7x,7x>2v4[16:5],{1},,{4},,{16},B7h[16:7]/B6h[16:7]/E7h[16:7]/E3h[16:7]/B2h[16:7]/B3h[16:7],
,,,,,,,,,,,,,,,5x,
,,{4}6x,
5x/4x,3x/7x,8x>2-6[2:1]*<6-2[16:7]*w4b[1:1],
,,,,,1xh[4:15],
E
