&title=憑いている
&artist=Ruliea; 初音ミク
&first=-0.01
&des=誰かに愛されたくて
&lv_5=13+
&des_5=誰かに愛されたくて
&inote_5=(152){1},,
{96}Ch[96:1],B7/E7/B6/B2/B3/E3,,,,,,,,,,,,,,,,,,,,,,,4x<6[8:1],,,,,,,,,,,,,,,,,,3h[16:3],,,,,,,,,,,,,,,,,,,,,,,,,,,,,,5/7h[4:1],,,,,,,,,,,,,,,,,,,,,,,,
{16}5,5,,,4<6[8:1],4,,3h[16:3],,,,,5-1[8:1],,,,
{16}4,,,,3-6[8:1],,,2h[16:3],,,,,4/7h[4:1],,,,
{16}4,4,,,3-6[8:1],3,,2h[4:1],,,,,,1x,,,
{2}8bxq5[8:3],1p4[8:3],
{2}7q5[8:3],2p4[8:3],
{16}6h[16:7],,,,,,,3,,,,,,,,,
{48}3,,,5,,,,,,2,,,4,,,3,,,,,,5,,,2h[8:1],,,,,,7x,,6x,,5x,,2,,,2,,,4x,,,3,,,
{16}6,,,,7<5[8:1],,,8h[16:3],,,,,6/1h[4:1],,,,
{16}6,6,,,2>4[8:1],2,,1h[16:3],,,,,3-7[8:1],,,,
{16}8,,,,8-4[8:1],,,1h[16:3],,,,,5/3h[4:1],,,,
{16}7,7,,,3,3,,2bh[16:3],,4,,3,6b,5,7,4,
{16}8x>4[4:1],,,,8/2-5-1[16:5],,,,2x,,,6,,6,,,
{16}1-7v4[4:1],,,,1/6-2[8:1],,,,6x,,,,4,1,3,8x,
{16},,8/1,,7,8,6,1x,,,2,1w5[16:5],3,8,2,,
{16},,,,,,4,4,6,,7/3,3/7,,1h[16:3],,,
{16}8,,2,,3h[8:1],,7,2,,2,6h[8:1],,4,,3h[8:1],,
{16}5,,2,,1,8,7,6x,,1x,6x,,2x,7x,,3x,
{16}8h[4:1],,,,1,,1,7,,,3h[16:3],,,6,,,
{2}5xh[384:1]/4xh[384:1],3h[2:1],
{1}2bx<2-8[4:3],
{8},,,1,1h[2:1],,,,
{1}7x<2-8[4:3],
{2},4>2-8[2:1],
{8}6xh[2:1],,,,8,,,2h[16:5],
{16},,4,,6xh[16:3],,5,,3xh[16:3],,,7,,,1,,
{8}2x/8x-5[8:1],2,3,3,5x/4x-1[8:1],5,6,6,
{48}1x,,,7,,,1,,,7x,,,2,,,8,,,2x,,,8,,,3x,,,1,,,3,,,1,,,4x,,8,,4,,8,,4,,8,,
{4}4,,B6/E6/B5/Ch[4:1],B1/B2/E2,
{4}B7/B8/B4/B3/E4f/E8,2>6[4:1],6<2[4:1],,
{16}5x-7[16:1],,,4x-8[16:1],,,3x,,2bx,,,,2x,1,2,1,
{4}3,4q1[4:1],1>4[4:1],,
{16}8x-3[16:1],,,2x-6[16:1],,,1x,,7bx,,,,6/8>3[8:1],,,,
{4}8b<5[8:1],8b-4-1[4:1],1-6-3[4:1],,
{16}2x-5[16:1],,,6x-1[16:1],,,3x,,2bx,,,,2x,1,3,8,
{8}4,,4V26[4:1],5,6V48[4:1],,,,
{16}7x-4[16:1],,,1x-5[16:1],,,6x,,8bx,,,3,1,,1,,
{16}1x/2x-5[8:1],,8,,6b/2b,,7,7,5,,4/6,,7/3,,2,2,
{16}8-6[8:1],,3,,8/4-7-3[16:3],,2,2,4x,,,,2x,1,8,7,
{16}6x-1[8:1],,4,,6b/2b,,3,3,1,,8/2,,7/3,,5,5,
{8}3-1[8:1],6,3/7-3-5[4:1],,8x,,1-5b[8:1],1x/7xh[8:1],
{8},,6x/4x-2[8:1],4/6h[8:1],,,1x-5[8:1],1/5h[8:1],
{8},,6x/4x-2[8:1],4/6h[8:1],,,1x-5b[8:1],8x/7xh[8:1],
{8},,6x/4x-2[8:1],5/6h[8:1],,,1x-5[8:1],1/5h[8:1],
{16},,,,6x/4x-2[8:1],,4/6h[8:1],,,,,1x,7-3[8:1],,2,,
{16}4x-1[8:1],,5,,4b,,7,7,1,,1/6,,2/5-8[8:1],,3,3,
{16}5-2[8:1],,4,,5/1-5-3[4:1],,7,7,1x,,8,,1x,8,7,6,
{16}1x/5x-8[8:1],,4,,3b/5b,,2,2,8,,8/3,,7/4-1[8:1],,6,6,
{16}4-7[8:1],,5,,4/8-4-6[4:1],,2,2,8x,,3,,1x-5b[8:1],,1x/7x,,
{8}6,7,8x/4x-2[8:1],8/4,7,6,1x-5[8:1],1/5,
{8}6,7,8x/4x-2[8:1],8/4,7,6,1x-5b[8:1],8x/7x,
{8}6,7,8x/4x-2[8:1],7/5,6,5,1x-5[8:1],2b/6b,
{8}7,8,5x>2[8:1]/1x<6[8:1],1/5,5bx/1bx,,5x/1x,7xh[8:1]/3xh[8:1],
{48},,,,,,,,,6x/4x,,,,,,,,,,,,,,,Ch[4:1],,A4,,A3,,A2,,A1,,,,B8/E8/B7/B5/E5/B4,,,,,,,,,,,,
{16}6x/1x-7[8:1],,2,,3,,5,6,,8,7,,1x/8x,,2/6,,
{16}3>8[8:1],,7,,6,,5,1,,7,3,,5x/1x,,3/7,,
{16}6<1[8:1],,2,,3,,4,8,,1,5,,8x/4x,,6/2,,
{8}1q7[4:1],8,7p1[4:1],8,1,8,7,5x/1x,
{8}5/1-4[8:1],6,7,8,5/1<6[8:1],4,3,2,
{8}1/5-8[8:1],2,3,4,1/5>2[8:1],8,7,6,
{8}5/1-4[8:1],1,7-3[8:1],7,5-8[8:1],4,2-6[8:1],2,
{16}1,,,8,,,4,8,4,,3/7,,2,6,3,7,
{16}Cf,,8,,7/3,,2,5,,3,8,,2/1,,7/4,,
{16}6<1[8:1],,2,,3,,4,8,,1,5,,8x-5[8:1]/4x-1[8:1],,8/4,,
{8}8bx/4bx,,8-3[8:1]/4-7[8:1],8/4,8bx/4bx,,4-8[8:1]/8-4[8:1],8/4,
{16}4bx/8bx,,,,6/2,,5,1,,8,4,,5x/1x>4[8:1],,8,,
{8}1bV38-4[8:3],6,7,7,6,6,5<8[8:1],4,
{16}5b,,3,3,1,,2,2,8,,1,1,7,7,3,3,
{1}5xh[384:1],
&lv_6=13
&des_6=卧槽终于写完了好区写得好累
&inote_6=(152){4},,,,,,,,3b/6b-3[8:7],
{16}2,,,2h[16:3],,,,,{4}1,
{16}1h[4:1],,,,,5,,5,,,{8}6/4,{4}7/3,
6/2-7[8:7],{16}8,,,8h[16:3],,,,,{4}6,
{16}5h[16:7],,,,,1p5[4:1],,1,,,,,,,,,{4}4/7h[4:3],
{16}E6,,,E2,,,{8}3,{4}3,
{16}5,1h[16:11],{8}5,{16}E4,E5,,E7/B6/B7,,,{8}5x,{4}5x,
3/7V51[4:1],{16}1s5[4:1],,,2,,,{8}3,{4}3,
{16}5,2,,4,6,1,,,7p2[8:1],8,7,8,,,,,{4}1/8,
{16}2/6,,,3/5-1[8:1],,,{8}4,{4}4,
{16}8,2,,,6,4,,3/7s3[16:3],,,,,,,,,{4}8/1,
{16}7/3,,,6/4V62[4:1],,,{8}7,{4}7,
{16}8,3,,5,4,6,3,2z6[16:3]/7s3[16:3],,,,,,,,,{4}1x/8xh[4:3],
{16}5,,,1,,,{8}1,{4}4,
{16}2,6,{8}2h[8:5],{4}8-4b[8:1],,C,
8x/7x,{16}C/E5,,,1x/2x,,,{8}B4/E4,{16}E8/B8,E7,E6,E5,
{8}Ch[8:3],{16},,,,B8,B7,{8}E7,{16}E3,B3,{4}B4,
{16}5/6,,,6,5,,,5,,,{8}6,5,4,
{4}3/4,{16}3,,,3,4,3,{8}3,{16}4,3,,5,
{4}4/6,{16}3/5,,,6,{8}4,4,{16}5,5,{8}4,
{1}2b/7b,
2q8p2[2:3]/7<3<7[2:3],
,3p5q3[4:5]/6<2<6[4:5],
{4},,,2/7,
1/Ch[4:7],2,3,4,
E1/D1,E2/D2,E3/D3,E4/D4,
E5h[4:7]/D5h[8:13],D6/E6,D7/E7,D8/E8,
1,8,{2}7pp2[2:1],
{4},,,,2xV48[4:1]/8x-6b[8:1],
8V62[4:1],5v8b[8:1],5>7[4:1],
5bx,Ch[4:1],E7/B6/B5/E5,2/1,
7xV51[4:1]/1x-3b[8:1],1V37[4:1],4v1b[8:1],4<2[4:1],
4bx,Ch[4:1],E3/B3/B4/E5,1xpp5[2:1]/8x-6[8:1],
8b/1b,5>8b[4:1],6,7h[16:7],
{16}5,,,4,,,{8}3,{2}2b-6[8:1],
{1}1h[4:3]/7bpp4[2:1],
{16}4/2,,,5/3,,,{8}6/4,{2}5x-1[8:1]/7x-4[8:1],
{4}5/2-4[8:1],8,{8}7/5-1[8:1],7,{4}7,
2/6-4[8:1],8,{8}1/3-7[8:1],1,{4}1,
8/2>6[8:1],1qq5[4:1],{8}5,4,3,{16}2x,3x,
{8}4bx,6b,8bw4[8:1],2b,{4}8b,{8}7/1,6,
{16}2/5bh[8:3],{32}E3,E4,E5,E6,E7,E8,E1,E2,,,{8}2xV48[4:1],{16},,,,,,7,6,
{8}5/1,2,7/3,4,5/8,7,6/3,5,
{4}4b-8[8:1]/2b-4[8:1],4b/2b,5b-1[8:1]/7b-5[8:1],5b/7b,
{8}6/2,{16}3,5,{8}4,8bv5[8:1],{2}8bv3[8:1],
{4}1x>4[8:1]/5x<8[8:1],1-6[8:1]/5-2[8:1],5/1,{8}1/7,6,
5/4,3,{4}2pp4[8:1]/1<5[8:1],1/2,6/2,
8x<5[8:1]/4x>1[8:1],4q8[8:1]/8q4[8:1],4>1[8:1]/8<5[8:1],8/4,
{8}8/6,4/5,{4}3<6[8:1]/1p8[4:1],{8},,4,4h[8:1],
{24}8x,7x,6x,5x,4x,3x,2x,1x,8x,7x,6x,5x,{8}4xV68b[8:1],3,2,1,
{4}1-5[8:1],{8}8,7-4[8:1],,1>6[4:1],1,B7/B8,
,,7q8[4:1],7,,,1b>6b[4:1],1b,
,,7bqq1b[4:1],7b,{16},,,,,,,,E3/E4,
,,E7/E8,,,{8}Ch[8:3],,,,,8/7,
6,8x/7x,5,1/7,6,8x/2x,5,
1/3,4,6x/5x,7,8-5[8:1]/4-1[8:1],5/1,{4}4x/8x,
{8}3/4,2,4x/3x,1,5/3,1,4x/6x,8,
7-1[8:1]/5-3[8:1],6,{4}5x/7x,{8}2xv5[8:1],2x<6[4:1],2x,2x,
,4-1[8:1],4x,8-5[8:1],8,2pp6[8:3],{4}2x,
{8},,7xv2[8:1],7v4[8:1],,,1xq5[8:1],1h[8:1],
,,7xp3[8:1],7h[8:1],,,2xq7p2[0.3947##0.5921],B1/B8,
{16},,,,,,,,{8}1/7,6,5/3,2,
{4}1/5-1[8:1],{8}2,3,{2}8v5[8:1]/4v1[8:1],
{4}2/6-2[8:1],{8}3,4,1<6[8:1]/5>2[8:1],5/1,,,{4}7x-4[8:1]/3x-8[8:1],
3/7,6x-1[8:1]/2x-5[8:1],2/6,
{8}4b/8b<2b[4:1],,,1w5[8:1],,,,3/7-5[8:1],
,7/3-1[8:1],4,3/7-3[8:1],6,7/2-5[8:1],1,2/8<3[4:1],
,3bpp3[4:1]*qq3[4:1],{16},,,,,,,,B1,B7,B3,B5,
{4}Ch[4:7],E1/D1,,E8/D8,
,E7/A7,,A6/B6,
Ch[4:7],E1/D1,,E2/D2,
,E3/A2,,A3/B3,
E
