&title=On And On!! feat. Jenga
&artist=ETIA. / Jenga
&first=0
&des=4LS
&lv_5=14
&inote_5=(170)
{1},
{16}4b/5h[4:3],,,6,,,3,,,7,,,2,,2,,
{16}5/4h[4:3],,,3,,,6,,,2,,,7,,7,,
{16}3/5h[4:3],,,1,,,7,,,4,,,2,,2,,
{16}6/4h[4:3],,,8,,,2,,,5,,,7,,7,,
{16}3/6,,,5,6,,4,,6,5,,,6-1[8:1]/4,,,,
{8}6/5,,3/7,6,2/4,3,4/6,7,
{16}1,8,1,8,1,8,1,8,1,8,1,8,2,7,3,6,
{32}4-6[8:1],,,,6x-2[8:1],,,,8x-4[8:1],,,,8x,,,,8,,,,,,,,1,2,3,4,5,6,7,8,
{8}1b/5b,,4/6,7,3/5,1,3/7v4[8:1],6,
{32}8,,,,,,,,,,,,2,3,4h[16:3],,,,,,7,6,5h[16:3],,,,,,1b-3-8-4[8:3],,,,
{8},,7,6,7,5,4/6,3/7,
{32}1/8,,,,7,,2,,6,,,,3,4,5h[16:3],,,,,,8,7,6h[16:3],,,,,,4,,,,
{8}1/7,,1-7[8:1],1-3[8:1],1-5[8:1],1,1,,
{16}2/6,,3,5,3,,1/7,,,,2/3,,,,7x-2[8:1]/6,,
{8},,3x-6[8:1],,,5x<8[8:1],,,1x>4[8:1],,,8x-4[8:1],,8,,,
{8}1b/8b,,3bpp6[8:3]/6,,8,1,8,,
{32}1/7,,,,2,,5,,3,,,,7,6,5h[16:3],,,,,,2,3,4h[16:3],,,,,,8b-6-1-5[8:3],,,,
{8},,2,3,2,4,3/5,2/6,
{32}8/1,,,,2,,7,,3,,,,6,5,4h[16:3],,,,,,1,2,3h[16:3],,,,,,5,,,,
{8}2/8,,8-2[8:1],8-6[8:1],8-4[8:1],8,8,,
{16}3/7,,6,4,6,,2/8,,,,7/6,,,,2x<7[8:1]/3,,
{8},,6x>3[8:1],,,1x-4[8:1],,,5x-8[8:1],,,1x>8[8:3],,,,,
{1}Cf,
{8}6h[8:7],,,,,,,5>2[8:3],
{8},E7,B6,B5,,E3,B3,B4,
{8},7,7,7<4[8:3],,,,,
{2}1h[1:1],3,
{8}7h[8:7],,,,5,,,4>1[8:3],
{8},E1,E8,E7,,E1,E2,E3,E4,
{8},5,5-1[8:1],,,,,
{4}3hb[8:1]/7hb[8:1],3h[8:1]/7h[8:1],4h[8:1]/6h[8:1],4h[8:1]/6h[8:1],
{4}5h[8:1]/3h[8:1],5h[8:1]/3h[8:1],6h[8:1]/2h[8:1],1h[8:1]/7h[8:1],
{4}5h[8:1]/3h[8:1],6h[8:1]/5h[8:1],3h[8:1]/4h[8:1],5h[8:1]/7h[8:1],
{4}4h[8:1]/2h[8:1],6h[8:1]/5h[8:1],3h[8:1]/4h[8:1],4h[8:1]/6h[8:1],
{8}3h[8:1]/6,,3h[8:1],,3h[8:1],,3h[8:1]/4,5,
{8}3h[8:1],,3h[8:1],,3h[8:1]/5,6,3h[8:1]/7,8,
{8}3/7h[8:1],,7h[8:1],4,7h[8:1]/3,,7,2b/6b,
{1}1pp4[2:1]/5pp8[2:1],
{16}2/6,,,,4/7,,6,5,6,,3,,2,,1/4,,
{16},,6,5,7,,3,4,1-5[8:1],,8,,7-4[8:1],,8,,
{16}2,,,,6,5,8,,3,4,1,,2/6,,3/8,,
{16},,7,8,5,,2,1,4b,,4,,2/5,,5,,
{16}3b/6b,,4/7,,5-1[8:1],6,1,8,5,,7,,4/2,,1,,
{16}6b/3b,,5/2,,4-8[8:1],3,8,1,4b,,2,,7/5,,1/8,,
{16}5b,6,4,7,3b,8,2,1,3b,4,2,5,1b,6,8,7,
{4}1/6x>3[8:1],6/2x-6[8:1],2/1xw5[8:1]/Cf,1x/Cf,
{16}3b/7b,,,,1/8,,7,5,6,,2-4[8:1]/5-1[8:1],,1/4,,2/5,,
{16},,7,7,4,,5,5,2,,1/6,,3v6[8:1]/7-2[8:1],,4/8,,
{16}3/7,,,,4/8,,3,4,1,,7p3[8:1]*v4[8:1],,1/6,,7,,
{16},,2,2,5,,4,4,7>2b[8:1],,,,7/4w8b[8:1],,,,
{16}4b,,,,2h[16:1]/6h[16:1],,3h[16:1]/4h[16:1],,5h[16:1]/7h[16:1],,4x-7[8:1]/8xv3[8:1],3/7,2/6,1/5,4x/8x,,
{16},,2x,6,4-8[8:1],,3,,4/5-1[8:1],,6,,5/4v7[8:1]*q8[8:1],,3,,
{16},,,,6/1,,2,4,3,,7-5[8:1]/4-8[8:1],,8/5,,7/4,,
{16},,7,7,4,,5,5,2,,1/6,,3q4[4:2]/7q8[4:2],,4/8,,
{4},,,1h[8:3]/5b,
{16},,8,7,6,5,4/2,3,4,5,6,7,8-4[8:1],1,2,3,
{16}4-1[8:1]*-7[8:1]/8b,,,,,,,,3/5,,4/6,,1h[16:1]/8h[16:1],,1h[16:1]/8h[16:1],,
{16}2/7,,6h,5h,6h,5h,6h,5h,8b>3[8:1]*<5[8:1],,,,8,,,,
{16}2/6,,1,8,2,7,1,8,2xh/7xh,,3-8[8:1]/7-4[8:1],,4h[16:1]/8h[16:1],,3b/7b,,
{16},,1,5,3,,4/6,,5/1,,2,,4/8,,6,,
{4}1-5[8:1]/7<5[8:1],1x>3[8:1]/7x-3[8:1],1xv4[8:1]/7xv4[8:1],1x/7x,
{32}3h[4:1],,,,4,,,,4,,,,6h[4:1],,,,5,,,,5,,,,4,3,2,1,8,7,6,5,
{8}4b/8b,,3/4,8,5/6,1,3/7v4[8:1],6,
{32}8,,,,,,,,1/6,,,,6,5,4,3h[32:3],,,,,7,6,5,4h[32:5],,,,,8b-6v1-7[8:3],7,6,5,
{8},,5-2[8:1],3,5,6,7,1/8,
{16}1/2,,3-8[8:1],4,3,,5-1[8:1]/3,,,,2>7[16:3]/5,,,,8,,
{48}8bqq5[8:3],,,,,,,,,,,,4,,,,,,2,,,,,,4,,,,,,2,,,,,,1/5x,,,,,,6,,7,,8,,
{32}1b/4>1[8:1],,,,,,,,,,,,7,6,5,4h[32:3],,,,,2,3,4,5h[32:5],,,,,1bq6[16:3],,,,
{8},4,2xp5[16:3],,6,8xq6[16:3],,3,
{8}1>4xqq1[2:1],,6,8x-5[8:1],,8,,,
{8}3b-8[8:1]/7b-4[8:1],,3bpp6[8:3]/7b,,8,1,8,,
{32}5/7,,,,3,,4,,1,,,,2,3,4,5h[32:3],,,,,3,4,5,6h[32:5],,,,,1b-3v8-2[8:3],2,3,4,
{8},,4-7[8:1],6,4,3,2,1/8,
{16}7/8,,6-1[8:1],5,6,,4-8[8:1]/6,,,,7<2[16:3]/4,,,,1,,
{8}1b-5[8:1],8x-6[8:1],1x-3[8:1],8x-4[8:1],1x<5[8:1],8x,1x,,
{16}3/8,,7-1[8:1],5,6,,2-6[8:1]/7,,,,2/8-4[8:1],,,,8/4,,
{16},,2/6,,7x,4,5,4,5,4,8x,3h,4h,3h,4h,3h,
{8}2/5-1[8:1],,,2v4[8:1]*v8[8:1],,Cf,,,
{16}6/3,,,4,3,,5,,3,4,,,3-8[8:1]/5,,,,
{8}4,,6/2,3,7/4,6,5/3,2,
{32}1,,8,,1,,8,,1,,8,,1,,8,,2bx,3,4,,8,,1,,7bx,6,5,,1,,8,,
{8}1>6[4:1],7,7,7-3[8:1]*-3[8:1],,,,,,
E
