&title=自攻自受
&artist=言和
&first=0.2
&des=Cart(Stalker) vs Cart(protector)
&lv_5=14
&inote_5=(140)
{8},,,,,,,3,3,5,5,2,2,6,6,3,6,2-5[8:1],7,2,,
{8}8,8,6,6,4,4,7,7,3,3,6,3,7-4[8:1],2,7,,
{8}1,1,2,7,3,6,2,6,3,7,2,6,1-5[8:1],5,1,,
{8}7,7,3,4,5,6,5,4,3,2,7,3,8,2,1-4[8:1]/8-5[8:1],,1b/8b,,
{16}3,6,3,6,2,5,2,5,1-5[8:1],,6,6,1,,7,,
{16}2-4[8:1],,6,6,2<7[8:1],,5,,2b,,,,
{16}6,,6,,1,8,1,8,2,7,2,7,1-4[8:1],,5,5,1,,7,,
{16}8-2[8:1],,4,4,8<4[4:1],,4,,8b,,,,,,,,
{16}6,3,6,3,7,4,7,4,8-4[8:1],,3,3,8,,2,,
{16}7-5[8:1],,3,3,7>2[8:1],,4,,7b,,,,
{16}3,,3,,8,1,8,1,7,2,7,2,8-5[8:1],,4,4,8,,2,,
{16}1-7[8:1],,5,5,1-3[8:1],,5,,1b,,,,8b,,,,
{8}3/5,,3/5,3/5,,4/6,4/6,4/6,4/6,,2/7,2/7,,1/8,1/8,2,3/6,3h[2:1]/6,,,,7,6,5,
{8},,3/5,3/5,,4/6,7,2/8,3,,6,6,2-5[8:1],5,2,6h[2:1],,,4,4,,
{8}1-4[8:1],4,1,7,7<4[8:1],2-7[8:1],7,2,5v8[8:1],5v2[8:1],5,5,6,6,4,8V61[8:1],,8,3,
{8}2h[4:1],,,2,,2,3,3,4-8[8:1],,,,
{8},1-5[8:1],8-4[8:1],1,8,,,2-5[8:1]/7,3/6,2/7,8h[4:1],,
{16}2,6,2,6,2,6,2,6,1,7,1,7,1,7,1,7,
{32}1,2,3,,
{16}6,,2-5[8:1]/8,,1,,2/7-3[8:1],,8,,7/1-4[8:1],,2,,1/8,,
{32}7,6,5,,
{16}2,,8,,
{32}2,3,4,,
{16}7,,1/8,,3/6,,
{8}1-3[8:1],3-5[8:1],1,6,7,8h[4:1],3,4,
{24}3,6,3,
{8}5,2h[16:1]/8h[16:1],3h[16:1]/7h[16:1],1s5[8:1],7,1,6,
{8}2b/8b,7-3[8:1],3-7[8:1],7,1,1>4[8:1],5<8[8:1],1,5,3,2,6,
{32}3,2,1,,
{8}7-4[8:1],3,7,
{8}2>5[8:1],6,2,8,6<1[8:1]*<1[8:1],2,6,4,
{32}2,3,4,,
{8}7,1,2,
{32}7,6,5,,
{8}2,8b,2/6,
{8}4pp4[4:1]*qq4[4:1],4,,,,2-5[8:1]/7-4[8:1],1/8,2/7,,
{16}6,6,2,,7,,3,,2,2,8,,3/6,,
{8}3s7[4:1]/6z2[4:1],3/6,,,,2-5[8:1]/7-4[8:1],1/8,2/7,,
{16}2,8,2,,7,,7,,3,3,5,,2/7,,
{8}7v4[8:1],2-7[8:1],7,2,,,
{16}3,6,3,6,2,,5,5,1,,3h[8:1]/7h[8:1],,,,,,
{8}6b,3b/8b-5[8:1],2b-4[8:1]/7b,8b,2b,7b,1h[8:1],,
{32}2/7b,6,5,,
{16},,
{32}7/3b,4,5,6,7,8,1,2,3,4,5,6,7,8,1,2,3/7,,,,
{8}6,2/8,7/4,
{32}1-5[8:1],2,3,,
{16}7,7,1,,6,,8,2,7-4[8:1],,2/8,,7,,
{32}2>4[8:1],1,8,,
{16}5,5,2-8[8:1],,6,,2,,,,
{32}7,6,5,,3,,,,8-4[8:1],7,6,,
{16}2,2,8,,3,,1,7,2-5[8:1],,7/1,,2,,
{32}7<5[8:1],8,1,,
{16}4,4,7-1[8:1],,3,,7,,,,
{32}3,2,1,,7,,,,4-8[8:1],3,2,,
{16}6,6,4,,7,,5,3,6-1[8:1],,3/5,,6,,
{32}3>1[8:1],4,5,,
{16}8,8,3-5[8:1],,7,,3,,,,
{32}6,7,8,,2,,,,5-1[8:1],6,7,,
{16}3,3,5,,2,,4,6,3-8[8:1],,6/4,,3,,
{32}6<8[8:1],5,4,,
{16}1,1,6-4[8:1],,2,,6,,,,
{8}1b,,7h[8:7],,,1,2,,1,2,,,3,3,
{8},6/2,1/7,8,3,2h[4:1]/6h[4:1],,,,8-4[8:1]/7-4[8:1],1/6,7/8,,,3,3,,6,7,8,
{8}3/7,,2-5[8:1],5-8[8:1],8-3[8:1],6,6,6,
{8}7,,3/6,3/6,,7-5[8:1],3V51[4:1],7,3,6,7,8,1>5[8:1],1p5[8:1],1,1,3-6[8:1],6-2[8:1],3,7,8-5[8:1],,8,3,
{8}2h[4:1],,,2,,5/1,3/7,2/6,4V28[8:1]/8V64[8:1],,,,
{8},2-4[8:1],4-1[8:1],2,6h[4:1],,,6,1-3[8:1],6,1,,
{16}4,6,4,6,4,6,4,6,3,7,3,7,3,7,3,7,
{8}4/7-2[8:1],6,7/4-1[8:1],3,6-3[8:1]/4,5,8-5[8:1]/6,1,8/2-7[8:1],3,2/5-8[8:1],6,3/5,2,1,3/7,
{8}8-4[8:1],3h[64:1],8,1b,3-5[8:1],5-1[8:1],3,7,
{32}8b,7,6,,2b,,,,
{8}7-1[8:1],3-5[8:1],7v5[8:1],3v1[8:1],7,3,
{8}6b,2-8[8:1],7/3,2,
{32}7,6,5,,
{8}3,3-6[8:1],6<3[4:1],3,5,5,6,7,8,1,1/8,
{8}1V35[8:1],7-3[8:1],1,7,2b,
{24}5,3,6,
{8}4,7>2[8:1],4b,7,4,3,
{32}8,7,6,,
{8}2-6[8:1],6,2,
{8}8-5[8:1],2-5[8:1],8,2,,2-5[8:1]/7-4[8:1],1/8,2/7,,
{16}3,3,8,,1/6,,7/2,,8,8,2,,1/6,,
{8}8qq5[4:1]/1pp4[4:1],1/8,,,,2-5[8:1]/7-4[8:1],1/8,2/7,,
{16}8,2,8,,7/3,,1/5,,6,6,3,,4/5,,
{8}2/7-5[8:1],7,2/7,2h[4:1],,,3,3-6[8:1],3-8[8:1],3-7[8:1],3,3,,
{8},2b-4[8:1],8b-6[8:1],2b-6[8:1],8b-4[8:1],2b-7[8:1]*-7[8:1],8b,2b,,
{32}6b,,,,,,,,2b/6b,3,4,5,6,7,8,1,2,3,4,5,6,7,8,1,2b/6b,,,,
{8}7b,2b/8b,4b/6b,,,,,,
{8}3h[128:1],5h[128:1],4h[128:1],6h[128:1],3pp8[1:1],,,,,,,,,,,,3,6,7,2>8[1:1],,,,,,,,,,,,,8,7,2,3,4s8[1:1],,,,,,,,,,,1/8,,2,7/3,7V51[2:1]/3V15[2:1],,,,,,,,
{8}6<3[2:1],,,,,7,6,5,4<1[2:1],,,,,2,3,4,5>8[2:1],,,,,7,6,5,4p1[2:1],,,,,,7,7,6V47[2:1],,,,,,1-5[8:1],,1w5[2:1],,,,,,,,7<4[8:1],,3>8[8:1],,4-7[8:1],,8-3[8:1],,6h[8:7],,,,2h[8:3],,,,
{32}1/7,2/6,,,
{8},,3/5h[1:1],,8,1,2,3h[8:3],,,,,2-5[8:1],7-5[8:1],2,7,,,
{16}3,,
{32}8,7,6,,
{16}2,,6,,,,2,8,2,8,2,8,2,8,1,7,1,7,1,7,1,7,
{32}1b,2,3,,
{16}6,,3,4,2,,
{32}8b,7,6,,
{16}3,,1,,6-1[8:1],,1-7[8:1],,6,,3,,2-5[8:1],,1-5[8:1],,2-4[8:1],,1,,2,,
{8}6-4[8:1],2b,6,3,8<4[8:1],4<8[8:1]*<8[8:1],8,2,1b,1b,6h[64:1],6h[64:1],2v4[8:1],8v6[8:1],2,8,
{32}1-5[8:1],2,3,,
{16}7,7,1,,6,,8,2,7-4[8:1],,2/8,,7,,
{32}2>4[8:1],1,8,,
{16}5,5,2-8[8:1],,6,,2,,
{8}7,1/5,3/7,
{32}8-4[8:1],7,6,,
{16}2,2,8,,3,,1,7,2-5[8:1],,7/1,,2,,
{32}7<5[8:1],8,1,,
{16}4,4,7-1[8:1],,3,,7-5[8:1],,
{8}3,7,2,
{8}8s4[4:1]*z4[4:1],8,,,,7-4[8:1]/2-5[8:1],1/8,2/7,,
{16}3,3,5,,1,,3/7,,6,6,2,,3/7,,
{8}4p8[4:1]*q8[4:1],4,,,,7-4[8:1]/2-5[8:1],1/8,2/7,,
{16}6,4,6,,2,,8,,3,5,3,,7/1,,
{24}3,5,3,6,4,6,2,5,2,7,4,7h[6:1],,,,
{8}1,
{32}2,3,4,,8,7,6,,
{24}2,8,2,7,1,7,2,8,2,7,1,7h[6:1],
{16},,,,
{32}2-5[8:1],3,4,,
{16}7,7,2,,8,,
{24}3,5,3,6,2,6,1,7,1h[6:1],
{8},
{48}6,5,4,,,,
{24},,,2,8,2,7,3,7,4,6,4,5,3,5,
{32}2,3,4,,
{16}7,1,
{48}7/2,3,4,5,6,7,8,1,2,3,4,5v2[2:1]/6-1[2:1],
E
