&title=We're Long Hua Expedition
&artist=烏屋茶房
&first=0.08
&des=thiuram
&lv_5=13
&inote_5=(74)
{8},,,,,,,,
{16}7b/3h[48:10],,,,1b-5[8:1]/5h[48:10],,,,6-4[8:1],,7,,8,,2,,
{16}2b/6h[48:10],,,,8b-4[8:1]/4h[48:10],,,,3-5[8:1],,2,,1,,7,,
{16}7b/3h[48:10],,,,1b-5[8:1]/5h[48:10],,,,6v4[8:1],,7,,8,,2,,
{16}2b/6h[48:10],,,,8b-4[8:1]/4h[48:10],,,,3v5[8:1],,2,,1,,7,,
{16}7b/3h[48:10],,,,1b-5[8:1]/5h[48:10],,,,7<4[8:1],,8,,1,,3,,
{16}2b/6h[48:10],,,,8b-4[8:1]/4h[48:10],,,,2>5[8:1],,1,,8,,6,,
{16}7b/3h[48:10],,,,1b-5[8:1]/5h[48:10],,,,7-3[8:1],,8,,1,,8,,
{32}8bz4[8:3]/4h[48:10],,,,,,,,{48}4,,,,,,,,,,7,,7,,,,,,8,,,,6,,5,,,,4,,5,,,,,,
{16}5/3p6[8:1],,6/3,,2h[48:10],,,,5/3v6[8:1],,6/3,,2h[48:10],,,,
{16}5/3-6[8:1],,6/3,,2h[48:10],,,,8h[48:10],,6-1[12:1],,5,,3,,
{16}3p6[8:1],,6/3,,2h[48:10],,,,5/3>6[8:1],,6/3,,2h[48:10],,,,
{16}5/3-6[8:1],,6/3,,2[48:10],,,,8h[48:10],,6-1[12:1],,5,,2,,
{16}3b,,3/4qq2[12:1],,3h[8:1],,,,4,,{24}6/2,,4,5,,3,4,,6,
{16}4,,4-7[12:1],,2h[48:10],,,,{24}3,8,1,7,4,5,3,8,1,7,4,5,
{16}4/6q3[8:1],,3/6,,7h[48:10],,,,4/6v3[8:1],,3/6,,7h[48:10],,,,
{16}6bq1[8:2],,,,8q3[8:2],,,,,,,,{24}4,,4,4h[8:1],,,
{24}6b,,,8-6[12:1],7,5h[12:2],1,,,,,,1-5[12:1],8,5,2,,,4b,,7b,4b,,8b,
{24}3,,,8-4[12:1],7,5h[12:2],1,,,,,,1V35[8:1],8,5,4b,,,6b/1b,,7b,6b,,,
{24}5bqq6[24:3]/3b,,,6b<2[12:1]/1b,,,,,,,,,4bpp3[24:3],,,3b>7[12:1]/8b,,,,,,,,,
{24}6bqq5[24:3],,,5b<8[12:1]/1b,,,,,,,,,4b>4[24:4]*<4[24:4],,,7b/1b,,,,,,,,,
{24}3b,,,1-3[12:1],2,4h[12:2],8,,,,,,8-4[12:1],1,4,7,,,5b,,2b,5b,,1b,
{24}6,,,1-5[12:1],2,4h[12:2],8,,,,,,8V64[8:1],1,4,5b,,,3b/8b,,2b,3b,,,
{24}4bpp3[24:3]/6b,,,3b>7[12:1]/8b,,,,,,,,,5bqq6[24:3],,,6b<2[12:1]/1b,,,,,,,,,
{96}3bs7[24:14],,,,{24},,,,,5,,,,,4,4-8[12:1],,,,,,,,,,,,
{24}7b/1b>4[12:1],,,,,,1/3,,,5,6,7,8,,4,1,,4,2<5[8:2],,4,3,,4,
{24}2,,,,,,1h[8:2],,7,,8,,2,,3,1,,5,3,,7,1,,5,
{24}4b>1[12:1],,,,,,4/2,,,8,7,6,5,,3,1,,5,7p3[12:1],,,6/4,,,
{24}2>5[12:1]/7,,,1,,,8qq6[12:1]/2,,,7,,,8/4-8[12:1],,,1,,,3/4q5[8:2],,2,2,,,
{24}7b/4b,,,,,,{36}6-8[18:1],,,1-3[18:1],,,5-1[18:1],,,6<4[18:3],,,1,,,5,,,6pp4[18:4],,,,,,,,,
{24}6b/4b,,,,,,{36}3-1[18:1],,,8-6[18:1],,,4-8[18:1],,,3>5[18:3],,,8,,,4,,,3,,,,,,,,,
{48}8b/5h[48:10],1,2,3,,,,,,,,,4b-8[8:1]/6h[48:10],3,2,1,,,,,,,,,1v7[8:1],,,,,,2,,,,,,3,,,,,,5,,,,,,
{48}1b/4h[48:10],8,7,6,,,,,,,,,5b-1[8:1]/3h[48:10],6,7,8,,,,,,,,,8v2[8:1],,,,,,7,,,,,,6,,,,,,4,,,,,,
{24}4b>1[12:1],,,,,,4/2,,,8,7,6,5,,1,4,,1,3<8[8:2],,1,2,,1,
{24}3,,,,,,2,,,6,5,7,3,8,1,7,4,5,3,8,1,7,4,5,
{24}2b,6,4,7,1,8,2b,5,4,6,1,8,3b/7b,,,1,,,7b/3b<1[8:2],,,1/5,,,
{24}3b/7b,,,,,,4bq6[8:2],,,,,,2b/4b,,,,,,8b,,,6/2,,,
{48}7b/3h[48:10],6,5,4,,,,,,,,,1bv3[8:1]/5h[48:10],8,7,6,,,,,,,,,6v4[8:1],,,,,,7,,,,,,8,,,,,,2,,,,,,
{48}2b/6h[48:10],3,4,5,,,,,,,,,8bv6[8:1]/4h[48:10],1,2,3,,,,,,,,,3v5[8:1],,,,,,2,,,,,,1,,,,,,7,,,,,,
{48}8bpp5[12:7]/1bqq4[12:7],2/7,3/6,4/5,,,,,,,,,,,,,,,,,,,,,,,,,,,,,,,,,,,,,,,,,,,,,
{48}5b/4b,3/6,2/7,1/8,,,,,,,,,5,,,,,,,,,,5,,5,,,,,,2h[8:1],,,,4,,5<4[8:8],,,,3,,6h[8:1],,,,4,,
{8}5,,,,,,,,5<4[8:6],,,,,,,,6h[48:1],,{24}8/2,,,,,6,5,,,5h[8:1],,,1,,,,,,
{8}3h[48:1],,{24}1/7,,,,,4,4,,,,,,,,,,,,
