&title=cold planet
&artist=knot
&first=0
&des=Lillet
&lv_5=14
&inote_1=
&inote_5=(174){4},,,{16},,
{8}5b,,,4,,,,4,,,,4,,,,{16},
3h[16:7],4,,,,4,,,3h[16:7],4,,,,4,,,3h[16:7],4,,,,4,,,3h[16:5],4,,,,4,,,
{4}3/4h[8:1],1/4h[8:1],6/4h[8:1],8/4h[16:3],
5h[8:2]/4h[8:1],7h[8:1],1h[8:2]/5h[8:1],4,
{4}2/1h[8:1],4/1h[8:1],7/1h[8:1],5/1h[16:3],
8h[8:2]/1h[8:1],6h[8:1],4h[8:2]/8h[8:1],1h[4:1],
4h[2:3],5,,5,,5,{16}5,4,5,4,5,4,5,4,
{8}5-8[8:1],6,5,7,8-3[4:1],6,8,5,4-1[8:1],3,4,2>5[8:1],1-6[4:1],2,1,,
8-5[8:1],7,8,6,5-2[4:1],7,5,8,1-4[8:1],2,1,3-8[8:1],4<7[4:1],3,4,,
1-4[8:1],2,1,3,4-7[4:1],2,4,1,8-5[8:1],7,8,6-1[8:1],5>2[4:1],6,5,,
{4}8h[2:3],1,,1,,{8}1,,,1,,1,
{4}1-4[2:3],,,,,,,5,
5-8[16:19],,,,,,1,{16}1>4[8:1],1,1,,
{4}1b-4[2:3],,,,,,,5,
5-8[16:19],,,,,,1,{16}1>4[8:1],1,1,,
{4}1b-5[8:1]/7h[8:1],8<5[8:1],8-4[8:1]/2h[8:1],
1>4[8:1],1b-5[8:1]/7h[8:1],8<5[8:1],8-4[8:1]/2h[8:1],
1>4[8:1],1b-4[8:1]/7h[8:1],1-5[8:1]/8<5[8:1],8-4[8:1],
1>4[8:1],1b-4[8:1]/7h[8:1],1-5[8:1]/8<5[8:1],8-4[8:1],
1>4[8:1],1b-4[8:1]/8<5[8:1],1-5[8:1]/8-5[8:1],8b-4[8:1],
1>4[8:1],1b-4[8:1]/8<5[8:1],1-5[8:1]/8-5[8:1],8b-4[8:1],8,
{8}1-4[8:1],1,8-5[8:1],8,1-6[8:1],8-3[8:1],1,8,
{16}2,4,2,4,8,6,8,6,1,7,1,8,{64}1b-4[8:1],28,37,46,{16}5,,,
{4}1/6-2[8:1],6/3^6[8:1],3/2-6[8:1],2/1-5[8:1],1/8-4[8:1],8^3[4:1]/4^7[8:1],48,8-5[8:1],
8/3-7[8:1],3/6^3[8:1],6/7-3[8:1],7/8-4[8:1],8/1-5[8:1],1^6[4:1]/5^2[8:1],51,1-4[8:1],
1/6-2[8:1],6/3^6[8:1],3/2-6[8:1],2/1-5[8:1],1/8-4[8:1],8^3[4:1]/4^7[8:1],48,8-5[8:1],
8/3-7[8:1],3/6^3[8:1],6/7-3[8:1],7/8-4[8:1],8b/1b-5[8:1],1^6[4:1]/5^2[8:1],5b/1b,
1-5[8:1],
1b-4[8:1]/8b-3[8:1],8-4[8:1],8b-5[8:1]/1b-6[8:1],
8-3[8:1],1b-5[8:1]/8b-4[8:1],1-6[8:1],8b-4[8:1]/1b-5[8:1],
8-3[8:1],1b-6[8:1]/8b-4[8:1],1-5[8:1],8b^3[8:1]/1b^6[8:1],
8^5[8:1]/1-5[8:1],1b^4[8:1]/8b-4[8:1],{8}8-3[4:1],,8b,2b,1b-4[8:1],,{4}
1/6-2[8:1],6/3^6[8:1],3/2-6[8:1],2/1-5[8:1],1/8-4[8:1],8^3[4:1]/4^7[8:1],48,8^5[8:1],
8-5[4:7],2,,{8}2,1,,2,,3,,{4}4,{8}4-1[1:4],{4}4,5,,5,,5,,5,,5,,5,,4-1[8:1],4,8b,
{16}2h[8:1],,5,,2h[8:1],3,,3,2h[8:1],,4,,2h[8:1],5,5,,
2h[8:1],,4,,2h[8:1],1,,1,2h[8:1],,5,,2,2,2b,,
{16}7h[8:1],,4,,7h[8:1],6,,6,7h[8:1],,5,,7h[8:1],4,4,,
7h[8:1],,5,,7h[8:1],8,,8,7h[8:1],,4,,7-2[8:1],7,7b,,
{8}7V51[8:1],1-7[8:1],7,3,4w8[8:1],,4b,,7V51[8:1],1V73[8:1],7,3,4w8[8:1],,4b,,
{8}7V51[8:1],1-3[8:1],7,3,4w8[8:1],,4b,,7V51[8:1],1V37[8:1],7,3,4w8[8:1],,4b,,
{8}2V48[8:1],8-2[8:1],2,6,5w1[8:1],,5b,,2V48[8:1],8V26[8:1],2,6,5w1[8:1],,5b,,
{8}2V48[8:1],8-6[8:1],2,6,5w1[8:1],,5b,,2V48[8:1],8V62[8:1],2,6,5w1[8:1],,5b^8[8:1],,
5V73[8:1],3-5[8:1]*V15[8:1],5,3,,4-1[8:1],4-7[8:1],4-8[8:1],
4<8[4:1],,8>4[4:1],,4,,5^8[8:1],,
5V73[8:1],3v5[8:1]*V15[8:1],5,3,,4-1[8:1],4-7[8:1],4-8[8:1],4<8[4:1],,8>4[4:1],,4,,
{16}5b^8[8:1],5,5,,
{4}5b-8[8:1]/4>1[8:1],5-1[8:1]/4-1[8:1],4b-8[8:1],
5<8[8:1],5b-8[8:1]/4>1[8:1],5-1[8:1]/4-1[8:1],4b-8[8:1],4,
{8}5-8[8:1],5,4-1[8:1],4,5-2[8:1],4-7[8:1],5,4,
{16}6,8,6,8,4,2,4,2,8,2,8,1,{64}8b-5[8:1],71,62,53,{16}4,,,
{4}8/3-7[8:1],3/6^3[8:1],6/7-3[8:1],7/8-4[8:1],8/1-5[8:1],1^6[4:1]/5^2[8:1],51,1-4[8:1],
1/6-2[8:1],6/3^6[8:1],3/2-6[8:1],2/1-5[8:1],1/8-4[8:1],8^3[4:1]/4^7[8:1],48,8-5[8:1],
8/3-7[8:1],3/6^3[8:1],6/7-3[8:1],7/8-4[8:1],8/1-5[8:1],1^6[4:1]/5^2[8:1],51,1-4[8:1],
1/6-2[8:1],6/3^6[8:1],3/2-6[8:1],2/1-5[8:1],1b/8b-4[8:1],8^3[4:1]/4^7[8:1],4b/8b,
8-4[8:1],
8b-5[8:1]/1b-6[8:1],1-5[8:1],1b-4[8:1]/8b-3[8:1],
1-6[8:1],8b-4[8:1]/1b-5[8:1],8-3[8:1],1b-5[8:1]/8b-4[8:1],
1-6[8:1],8b-3[8:1]/1b-5[8:1],8-4[8:1],1b^6[8:1]/8b^3[8:1],
1^4[8:1]/8-4[8:1],8b^5[8:1]/1b-5[8:1],{8}1-6[4:1],,1b,7b,8b-5[8:1],,
{4}8-6[8:1]/2-6[8:1],8bv5[8:1]/2bv5[8:1],8-4[8:1]/2-4[8:1],2b/8b,
7-4[8:1]/3-8[8:1],7b>3[8:1]/3b<7[8:1],37,
{8}1b-4[8:1]/7,8-3[8:1],1^4[8:1],8-5[8:1],1-6[8:1],8^5[8:1],1-5[8:1],8-4[8:1],1,8,
{16}1b,6b,4b,2b,5b,8b,3b,6b,{8}2b/7b,6bv8[8:1]/3bv1[8:1],1b-4[8:1]/8b-5[8:1],,
E
