&title=呪歌-JyuKa-
&artist=ガルナ(オワタP) feat.水槽
&first=0.07
&des=オカルト配信者
&lv_5=13+
&des_5=オカルト配信者
&inote_5=
(160){4},,,,8<6v4[8:3]*>2v4[8:3],
,,5/3,
{8}5,3,3,6,6,2,2,7,
1,7,1,8,{4}1-6[8:1]*-4[8:1],1b,
{8}7/5,3,5/7,3,6,5,4,3,
5,3>1[8:1],5<7[8:1],3,{4}5,{8}8b,8,
{4}7h[8:1]/1h[8:1],{16}2,7,{8}2,{16}6,3,{8}6,{4}3pp6[8:5],
{8}6,7,8,1,1h[4:1],,,6b,
{4}5h[2:1],{32}7x,B7,{16}B8,,,{8}6,4,{4}7/3,
6h[2:1],{32}3x,B3,{16}E3,,,{8}2p6p2[2:1],7,{4}6p2[4:1],
{2}7h[4:1],{8}8/1,1h[8:3],,,7,
7/2,6/3,6/3,{4}5q1[8:1]/4v1[8:1],5b/4b,
2x-5[8:1],2V86[4:1],{8}4,4,{4}4,
7x-4[8:1],7V13[4:1],{8}4,4,{4}4,
2xpp4[4:1],2,6pp8[4:1],6,
{8}4x,6/2,5/3,6/2,{4}7b-3[8:1]/1b-5[8:1],7b/1b,
{8}2h[4:1],5,6h[4:1],3,4h[4:1],7,8h[4:1],3,
2h[4:1],7,6h[4:1],3,{2}4h[4:1],
{4}3<6[4:1],6<1b[4:1],1>2-4[4:1],4<5-7b[4:1],
{8}8,8,8,{16}B1,B8,{2}Ch[2:1],
{4}8,8,8,8b,
{8}2h[8:1],{32}E2,B2,,,{8}7h[8:1],{32}E8,B7,,,{8}4-2-8[4:1],4,5,6,
7-5[8:1],7>1[8:1],{4}7-3b[8:1],{8},,,1-7-5[4:1],
1h[4:1],,,1-3-5[4:1],1h[4:1],,,1,
{4}1h[4:1],{8}7,6/2,3,{16}6,5,{4}4,
{8}3h[8:1],{32}E4,B4,,,{8}2h[8:1],{32}B2,E3,,,{8}1h[8:1],7h[8:1],2h[8:1],6h[8:1],
3,3qq5[8:3],6pp4[8:3],3,6,,,3,
{4}3h[4:1],{8}6,{16}2,2,{8}6,{16}1,1,{8}6h[4:1],{16}8,1,
{8}2h[4:3],{16}E1,B8,B7,E7,B6,B5,{8}E5,,,5b,
{4}5h[2:1],{32}2x,B2,{16}B1,,,{8}3,6,{4}7/3,
6h[2:1],{32}3x,B3,{16}E3,,,{8}2,7,{4}8/1,
1V75[4:1],5V31[4:1],{2}1qq1[4:1],
{8}5,5,5/2,5/3,{4}4bz8[8:1]*s8[8:1],4b,
2x-5[8:1],2V86[4:1],{8}5,4,{4}3,
7x-4[8:1],7V13[4:1],{8}4,5,{4}6,
3<7[4:1],7>3[4:1],3V57[4:1],7V13[4:1],
{8},6,6,6,{4}7b-3[8:1]/1b-5[8:1],7b/1b,
{8}6h[4:1],4,3h[4:1],5,5h[4:1],2,1h[4:1],6,
7h[4:1],2,3h[4:1],6,{2}5h[4:1],
{8}5/3>1[8:1],4,{4}3/5,{8}4/6<8[8:1],5,{4}4/6>6[4:3],
{16},,,,,,B2,B1,{2}Ch[4:5],
{4}7,7,7,7b-2[8:1],
{8}7/3-6[8:1],4,3/7,8,7/5,4,7/3,2,
8/1-4[8:1],7,1/8,7,{4}6h[4:1],{8}4,5/3,
{4}4/6h[4:1],{32}B4,E4,,,{8}7,{4}6/3h[4:1],{32}B6,B5,,,{8}4,
2,6/3,8,6/3,1>3[8:1],{16}6,7,{4}8,
{8}8-5[8:1],7,8/4-1[8:1],3,4,{16}5,6,{8}7,8x/1,
2-4[8:1],7-1[8:1],2-6[8:1],7,2,1x,8x,4,
4h[4:1],{16},,,,7,7,{8}3,{16}6,6,{8}2h[4:1],{16}5,6,
{2}7>6[8:5],4h[8:3],
{8}7h[4:1],{16},,,,2,8,{8}2,{16}7,3,{8}7,{16}4-8-4[4:3],6,
{1}4h[2:1],
{8}3,3,,6/2,,7/2,,6/2,
3,4,,6/3,,5/4,,7/3,
6,5,,5,3,3,3,7b,
{4}2h[4:15],E8,,E7,
,B6,,B5,
,B6,,E7,
,B7,,7h[4:13],
,2,,3,
,4,,3,
,2,,2,
Ch[4:3],E8,{8}B5,B6,{4}E7,
2h[8:1],2h[8:1],3,3h[8:1],
4h[8:1],4h[8:1],5/4h[8:1],5/4h[8:1],
4/5h[8:1],4/5h[8:1],6,6h[8:1],
7h[8:1],7h[8:1],8h[8:1],8h[8:1],
7h[8:1]/Ch[4:7],7h[8:1],6,6h[8:1],
5h[8:1],5h[8:1],6h[8:1],6h[8:1],
{8}7,7,8,8,1,1,8,8,
8/1,1/8,2/6,2/6,5/3,7/4,{4}2/8b-5[8:1],
{8}8/2pp4[8:1],3,2/6pp8[8:1],7,6/3,2,7/3,5,
4qq2[8:1],4pp6[8:1],{4}4-8b[8:1],{8},,,4,
{4}4>1[8:1],{24}4x/8x,7x,6x,5x,,,{4}5x<8[8:1],{24}5x/1x,2x,3x,4x,,,{4}8xh[2:1],
{8}3,2,1>3[8:1],{16}6,7,{4}8,
{8}8v5[8:1],7,8/3v6[8:1],4,3/8,8,7qq6[4:1],7,
4x,3,2,1,{4}1v3[8:1]/7v5b[8:1],7b/1b,
{8}5xh[4:1],{16},,,,2,2,{8}6,{16}3,4,{8}5h[8:5],{16}7,8,
{2}1h[8:3],5-1[8:1]/1-5[8:1],
{4}7/3,{8}6h[4:1],{16}4,3,{8}2h[8:3],{16}7,8,{4}1h[16:3],
{16}B2,B3,B4,E5,E1,B8,B7,B6,E6,E5,E4,E3,E2,E1,{8}E8,
7xh[4:7],1,2,2,3,3,4,4,
5,4,3,2,{4}2,1b,
{8}8,1-5<6[8:1],2,1,2,{16}2,3,{4}4/6h[8:1],
{8}7/3,7/3,6/4,6/4,{4}5h[4:1],{8}4v7[8:1]*v1[8:1],4,
{4}4,{8}7,{16}1,2,{8}3,{16}6,7,{8}8-5>4[4:1],{16}2,3,
{4}4-1[4:1],{16}E4,B4,B5,E6,{2}Ch[2:1],
{4}6,6,{8}7,5,{16}6,4,5,3,
{8}4h[4:1],2,2,1-4[8:1],1,6v7[8:1],6,5,
5,6/4,7/3,8/2,{4}1b-6[8:1]*-4[8:1],1b,
E
