&title=Crank up
&artist=Litmus*
&first=-0.42
&des=Jack2310
&lv_5=13.9
&des_5=
&inote_5=
(223){4},,3x>8[2:1],{8}7,6,
,3,{4}4,6x>3[2:1],{8}2,1,
,7,{4}6,2x>5[2:1],{8}1,8,
,6,{4}7,2b/7b,{8}6b/3b,5b/4b,
,8b/1b,,,{4}4x-8[2:5],{8}7,6,
,6,{4}7,2,{8}2,1,
,1,{4}2,7,{8}7,6,
,6,{4}7,8b/1b,{8}2b/7b,3b/6b,
,5b/4b,,,{4}7x-5[8:1],3,
1x-4-2[4:1],{8}8,7,,,4,3/5x-8-3[4:1],
,2,{4}1,2x-5-3[4:1],{8}7,6,
,6,{4}7/B3/E3/B2,8b/4b,{8}7b/3b,2b/6b,
,5b/1b,,,{4}4x-8-5-7[8:3],{8}3,2,
,2,3,B7/B5/B6,,,{4}4/2xpp4v7[4:1],
{8}8,1,,,{4}7x-4-6[4:1],{8}2,1,
,1,{4}2/B5/E6/B6,8b/1b,{8}2b/7b,6b/3b,
,5b/4b,,,8,1,8,1-7-2[4:1]*V35[4:1],
,,,,4,5,3,4-6-1[4:1]*-2-5[4:1],
,,,,7,2,7,2-8-5[4:1]*-4-1[4:1],
,,,,{4}8b/4b,{8}3b/7b,2b/6b,
,5b/1b,,,{4}2x-8-3[4:1],{8}6,7x-2-5[4:1],
,,,,{4}1x-4v2[4:1],5,
6x-3-5[4:1],1x-3-6-2-7[2:1],{8},,,8,
,6/B1/B2/E2,{4}5,1b/5b,{8}6b/2b,7b/3b,
,8b/4b,,,1/6-3[8:1],2,{4}1,
{8}7/2-7[8:1],{16}7x,6x,{8}5x,6,{16}1x/5-8[8:1],2x,{8}3x,2,3,
{4}7/1-4[8:1],6h[8:1],{16}3x/7-4[8:1],2x,{8}1x,2,1,
5/2-5[8:1],6,{4}7,{16}4x/6-3[8:1],3x,{8}2x,1,2,
{2}1-5[8:1]/7-2[8:1],{4}3-7[8:1],1-4[8:3],
{2}8-3[8:1],{8}2,{16}5x,6x,{8}7x,3,
{2}2-7[8:1]/4-8[8:1],{8}1/6-2[8:1],8,{4}6,
7-4[8:1]*-2[8:1],7,3b-7[8:1],1bw5[8:1],
,7/3,{8}5/4-7[8:1],2,3,2-5-3[4:1],
{2}1-6[8:1],{8}5/2-7[8:1],4-6[8:1],5,4-1[8:1],
,8-5[8:1],,,{4}2,{8}1/5,2-7-3[4:1]/6-1[8:1],
,,,,5,1-4[8:1],{4}2-6[4:1],
{8},,,4,6/5-2[8:1],7,5,7,
3,2,{4}1/5,{8}7/4-8[8:13],6,5,2h[8:1],
,6h[8:1],,,{4}3h[8:1],{8}7,6,
,4,,,{4}6b/3b,{8}7b/2b,8b/1b,
,5b/4b,,,{2}8b-4b[8:1],
,,{1}1b,
{8},1b,,,,,,,,,{4}1b,
{8},,,,,,,1b,
,,,,,,,1b,
,,,,,,{4}1b>8[8:59],
{8},,,,,1b,
,,,,,,{4}1b,
,,1b,
{8},,,1b,,,,,1b,
,,,,1,,,,1,
,,1,,,1,
,,{4}1,1,{16}1,,,1,
,,{8}1,{16},1,,,1,,,1,,,{8}1,
2,3,{16}4,5,{8}6,,,{4}Ch[4:1],
,,8-6[8:1],{8}8-4[8:1],1b,
8-6[8:1],2,{4}8/3h[8:1],1-3[8:1],{8}1-5[8:1],8b,
1-3[8:1],7,{4}1/6h[8:1],5-7[8:1],{8}5-1[8:1],4b,
5-7[8:1],3,{4}5/2h[8:1],4-2[8:1],{8}4-8[8:1],7b,
4-2[8:1],6,{4}4/5h[8:1],1h[8:1],{8}5h[8:1],8b-4-2[4:1],
7h[8:1],{16}8bx,5h[8:1],,,,,{4}7h[8:1],{8}5h[8:1],2b-6-3[4:1],
8h[8:1],2bx,{4}4h[8:1],2h[8:1],{8}3h[8:1],7b-5-1[4:1],
4h[8:1],7bx,{4}2h[8:1],8b/4b,{8}1b/5b,2b/6b,
,7b/3b,,,{4}B2,{8}E7,E6/B5/1b-7-3[4:1],
,B4/E4,{4}E6/B6,B1,{8}B4,E3/5b-7-3[4:1],
B1/E2,E8,{4}B2,{8}B4,E3,B7,B5/E6/1b-5-3[4:1],
,E8/B8,B6/E6,E1,{4}E3/B2,{8}B1,B8/7b-3-5[4:1],
,E2/B2,{4}B8/E8,{8}2/4x-7[8:5],1,2,1,
{4}2h[8:1],1h[8:1],5/8x-3[16:11],{8}6,5h[8:1],
,6,{4}5h[8:1],{8}8,7,{4}4,
3h[8:1]/4h[8:1],8h[8:1]/7h[8:1],6b/1b,{8}5b/2b,4b/3b,
,8b/7b,,,7-2[8:1],4,{4}3,
{8}3-6[8:1],8,7,8,7-4[8:1],4,3,2,
1-6[8:1],4,5,4,3-8[8:1],4,6,5,
4-7[8:1],3,2,1,2-5[8:1],5,6,7,
8-3[8:1],5,6,5,6-1[8:1],3,4,5,
4-7[8:1],1,2,3,4-1[8:1],5,7,6,
5-2[8:1],7,6,7,8-3[8:1],5,6,7,
6-1[8:1],3,4,5,{4}4b/8b,{8}7b/3b,6b/2b,
,1b/5b,,,{4}3/6,1/7-4V68[4:1],
{8}2,2,{4}2-5v7[8:3],{8}6,6,{4}6,
{8}5-7-4[4:1],1,{4}2,{8}3,3v2V46[2:1],{4}3,
{8}8,8,{4}8,{8}7/E6/B5/E5,C,{4}7/B1/E2/E1,
{8}B3,C,B7,5,{4}B5/B4/E4/E6,B1/B8/E8/E2,
{8}3/E7/B7/E8,2/C,{4}1/E5/B4/E4,{8}2/E6/E5/B5,3/C,{4}4/E1/E2/B1,
8,{8}7/E4,6,{4}E2/B2/B1,{8}6/E5/B4/B5,7,
4/Ch[4:1],3,{4}2/B8/B1/E1,E5,{8}E6/E4,E7/E3,
,B8/B1,,,{2}2b/7bw3b[4:17],
,,,,,,,,,4xh[1:2],
{4},,,,,,,6xh[2:1]/Ch[4:1],
{8},,,,3b,5b,7b,4b,
2b,6b,3b,8b,4b,1b,7b,3b,
5b,2b,8b,3b,6b,1b,4b,7b,
2b,5b,3b,8b,5b,2b,4b,6b,
1b,5b,7b,3b,1b,6b,4b,8b,
2b,5b,7b,3b,6b,1b,4b,8b,
2b,5b,3b,7b,4b,1b,6b,8b,
3b,5b,2b,7b,{4}E1,{8}E8/E2,E7/E3,
,E6/E4,,,{2}7bh[8:1]/2bh[8:1],
E
