&title=And Revive The Melody
&artist=黒魔
&first=0.071
&des=udo
&lv_5=14
&des_5=udo
&inote_5=
(220){4},,,Ch[2:3],
{8},,,,,,,,,,,,3h[8:3],
,,4h[8:3],
,,{4}5h[8:3],{8},6h[8:3],,,{4}8h[4:1],
2h[4:1],{8}4h[8:3],,,5h[8:3],
,,{4}6h[4:3],,,{2}E1/B8/C/B4/E5,
{8}8b/1b,2-5[8:1],8,2/8,
7-4[8:1],1,1/7,2-5[8:1],8,2/8,7-4[8:1],7,
7/1-4[8:1],1,{4}1x/5x-1[8:1],{8}5/2,2-6[8:1],2,2/8,
8-4[8:1],8,{4}8/1,{16}1,2,3,4,{8}A8/B8,4h[8:1],
B7/A7,3h[8:1],{4}B6/A6,{8}8b/1b,7-4[8:1],1,7/1,
2-5[8:1],8,8/2,7-4[8:1],1,7/1,2-5[8:1],2,
2/8-5[8:1],8,{4}8x/4x-8[8:1],{8}4/7,7-3[8:1],7,7/1,
1-5[8:1],1,{4}1/8,{16}8,7,6,5,{8}A1/B1,5h[8:1],
B2/A2,6h[8:1],{4}B3/A3,{2}4xh[1:2],
{12}B8,B7,B6,B5,B4,B3,B2,B1,E1,E8,E7,E6,
E5,E4,E3,E2,E1,E8,{2}7xh[1:1],
{12}E5,E4,E3,E2,E1,E8,{2}E7,
4/5,{8}3/7b,6,5/3,4,
3/7b,6,5/3,4,3/7b,6,5/3,4,
8b/3b,8b/3b,,,6/2b,3,4/6,5,
6/2b,3,4/6,5,6/2b,3,4/6,5,
1b/6b,1b/6b,(215){4},{2}Cf/5p4>5[2:3],
,,,5h[8:3]/3h[8:3],
4h[8:3]/6h[8:3],6h[8:3]/2h[8:3],
{8},6/2,,,{2}2/7p4[2:1],
,7/2q5[2:1],
,Ch[2:3],
{8},,,,,,,,1,
7/3,,,{4}6/2pp4[2:1],6,
6,6,6/2<8v3[2:1],6,
6,6,6/4h[4:1],6,
{12}6,4,7,3,{24},,,,{8}8h[8:3],,,3,
5/4,6,6,7,{2}7h[4:3]/1pp4[2:1],
,3h[4:3]/5pp8[2:1],
{12},,,,,,3,5,4,6h[1:1],{24},{8}5h[4:3],
{16},,,,,,,,,,,,5,4,3,2,
1,8,7,6,{4}5,(210)E8h[4:1],3,
E2h[4:1],6,B8h[4:1],4,
B1h[4:1],5,E7h[4:1],3,
E3h[4:1],6q7[0.2857##1.1429],{2}6,
{4},,E2h[4:1],6,
E8h[4:1],3,B1h[4:1],5,
B8h[4:1],4,E3h[4:1],6,
E7h[4:1],3p2[2:1],{2}3,
C,(215){12}6b,{24}4,,{12}7,5,{24},{8},
6/5,,{12}4,{24}6,,{12}3,{8}5,,{12}3,{24}4,,{12}2,
6,{24}5,,{12}7,3,{24}2,,{12}1,8,{24}7,,{12}6,1/5,{24}2,,{12}3,
8/4,{24}7,,{12}6,1/5,{24}2,,{12}3,{8}4/5h[#0.1860466],,6h[#0.1860466],,
7h[#0.1860466],,{16}1,8,1,8,{4}1,{8}1s5b[8:3],8z4[4:1],
{16},,,,,,,,3,5,3,5,4,6,4,6,
5,7,5,7,{4}5,{32}1bx,2x,{16}3x,{32}1bx,2x,{16}3x,{32},,,,1bx,2x,{16}3x,
{32}1bx,2x,{16}3x,{32},,,,1bx,2x,{16}3x,{32}1bx,2x,{16}3x,{32},,,,1bx,2x,{16}3x,{32}1bx,2x,{16}3x,,,8,
7,6,5,4,3,2,1,{32}8bx,7x,{16}6x,{32}8bx,7x,{16}6x,{32},,,,8bx,7x,{16}6x,
{32}8bx,7x,{16}6x,{32},,,,8bx,7x,{16}6x,{32}8bx,7x,{16}6x,,,,,,,,,(220){8}7b/4b,
7/4,6/3,6/3,{4}5/2-5-1[4:1],{8}7/2,8h[8:3],
,,{4}1,3/6V84[4:1],{8}2/6,3h[8:3],
,,{4}4,{8}6-3[8:1],1-4[8:1],6,1,
,7,{24}1,2,3,4>1[4:1],,,{2}6-8-4[4:1],
{16},,,,2,3,{8}4,{4}6/4x-8-3[4:1],{8}6/4,5h[8:3],
,,{4}3,3/7V51[4:1],{8}7/2,3h[8:3],
,,{4}8,{8}2,8-4[8:1],1,8,
2-6[8:1],7,2,7-3[8:1],1,7,{4}1,
{8}2/5,5/2,3/6,6/3,{4}4/7-4-8[4:1],{8}2/7,1h[8:3],
,,{4}8,6/2V48[4:1],{8}2/7,6h[8:3],
,,{4}8,{8}3-6[8:1],8-5[8:1],3,8,
,3,,2,1/8,{24}7,6,5,{8}4,B4/B8/E2/E6/Cf,
,,{4}2-7[8:1],2/6-3[8:1],6/2-5[8:1],
2/6-1[8:1],6/4>1[8:1],4<7[8:1],4-1[8:1],
4-7[8:1],4,1/8,{8}7,{16}6/5,4,
3,2,1,8,7,6,5,4,{8}3,8h[8:1],7h[8:1],6h[8:1],
5,{16}3,3,{8}5,4,(215){4}6/3h[4:1],{8}5,5p3>5[8:11],
,,,,,,,,,,,,{2}4-2-7>4[4:7],
,,,7-4-1-6[16:29],
,,,1pp8[4:5],
{16},,,,A5,D6,A6,D7,,,{8}B7/A7,,,{2}Ch[2:1],
(210)1h[1:1],
,3h[1:1],
,5h[1:1],
{8},,,,6h[4:1],,,7/2,
,,,,(220)2,8-4[8:1],1,8,
1-5[8:1],7,1,8<5[8:1],2,8,1>4[8:1],7,
{2}1-6[8:1]*-5[8:1],{8}2,8-4[8:1],1,8,
1-5[8:1],7,1,8<5[8:1],2,8,1>4[0.2727##0.1364],7,
D4h[8:1],(180),{24},,,,,8b/1b,,,,,,,,,,8x,1x,8x,
1x,8x,1x,8x,1x,8x,1x,8x,1x,8x,1x,8x,{6}1h[6:1],2h[6:1],3h[6:1],
4h[6:1],5h[6:1],6h[6:1],7h[6:1],{12}8h[4:1],,,B2/E3,
B3,B4,E7/B7,B6,B5,E1/B8/B1,C,E5,{24},,,,,,,,,,,(160){8}A5h[4:1]/D5h[4:1]/A4h[4:1],
,(240)8h[4:1],,,{4}7/2>8[0.25##0.375],
{16}A2,A3,A4,A5,A6,A7,(220){8}A8/5-2[8:1],,1,{4}8-3[8:1],
{8}5,6-1[8:1],,2,{4}3-6[8:1],{8}8,7-4[8:1],
,3,{4}2-7[8:1],{8}5,6,{16},,8,7,
6,5,4,3,(210){8}2/5,6,6,2/7,3,3,
{2}4/8-5[8:1]*-3[8:1],(215){8}7/4,3,3,7/2,
6,6,{4}5/1-4[8:1]*-6[8:1],{8},,(220),(220.3125),
(220.625){12}6,{24}5,(220.9375),{12}6,(221.25)7h[#0.1807175]/4h[#0.1807175],{24},(221.5625){8},(221.875){12}3,{24}4,(222.1875),{12}3,(222.5)5h[#0.1797104]/2h[#0.1797104],{24},(222.8125){8},
(223.125){12}7,{24}8,(223.4375),{12}6,(223.75)2,{24}1,(224.0625),{12}3,(224.375){8},(224.6875),(225)3/6,5,
4/7,3,2/4,8/5,7/2,8-4[8:1]/1-5[8:1],,8/1/B3h[8:1]/E3h[8:1]/B2h[8:1]/B6h[8:1]/E7h[8:1]/B7h[8:1]/Ch[8:1],
,,(180){4},(140){8}8b/1b,{16},,,,2/4,2/4,
{8}2/4,{16},,,,5/7,7/5,{2}5/7,
{24},,,,,,1b,5,1b,5,1b,5,1b,5,1b,5,1b,5,1b,5,1b,5,1b,5,
1b>2>3<4<5<6<7>8[1:1],5,1b,5,1b,5,{4}1b,,,,,(210),
(215),
,,{2}6<8v6[0.2791##7.5349]/2>4v2[0.2791##7.5349],
,,,,,,,,,,,,,(208),
(220){8}7b/4b,7/4,6/3,6/3,{4}5/2-6-4-1[4:1],{8}7/2,8h[8:3],
,,{4}1,3/6<1-5[4:1],{8}2/6,3h[8:3],
,,{4}5,{8}6-3[8:1],1-4[8:1],6,1,
,6,,7,1/8,{24}2,3,4,{8}5,B4/B8/E2/E6/Cf,
,,{4}1-5[8:1],1/7-3[8:1],7/2-6[8:1],
2/8-4[8:1],8/3-7b[8:1],3/5-1b[8:1],5/4-8b[8:1],
4/6-2b[8:1],6/1-5b[8:1],1,{8}7-4b[8:1],7,
7/1-5b[8:1],1,1/8-4b[8:1],8,8/2-5b[8:1],2,{4}2,
{16}6,1,6,1,7,2,7,2,{8}8>4[2:1],8,7,7,
6,6,5,5,{16}5,4,5,4,6,3,6,3,
7,2,7,2,8,1,8,1,{4}8,{8}1V35[2:1],1/Ch[8:5],
{1},{24}5x,
4x,3x,2x,1x,8x,7x,6x,5x,4x,,,{8}7x-5b[8:1],8x-4b[8:1],7x,8x,
1x-7b[8:1],2x-6b[8:1],1x,2x,{4}1x-5b[8:1],1x<6b[8:1],
1x/4x-2b[8:1]*-7b[8:1],4x,{8}8,{16}1,8,{4}1,
{8}8-5[8:1],5-2[8:1],{4}8,{8}E1/B1/A1,,,7,
{12}8,6,4,5,3,4,8,7,6,8,7,6,
8,7,6,8,7,6,4,3,2,4,3,2,
4,3,2,1h[4:1],{48},,,,,,,,,,,,,,{16}7,8,7,8,6,1,
6,1,5,2,5,2,4,3,6,5,7,4,8,3,1,2,
{2}1bh[4:1],{8}2x-4b[8:1],1x-5b[8:1],2x,1x,
8x-2b[8:1],7x-3b[8:1],8x,7x,{4}8x-4b[8:1],8x>3b[8:1],
8x/5x-7b[8:1]*-2b[8:1],5x,1h[4:1],{16}6,5,{8}7h[4:1],
{16},,3,4,{4}2bh[4:1],{8}1b,8,7,6b/3b,
{16},,E5,E6`E4,E7`E3`C,E8`E2,{8}E1,{32},,,,,,,,,,,,,,,,(210)6b`2b,
E3f/E7f,B3/B7,B4/B8,{8}E5/E1,{24},,,,,,{12}1,5,5,2,6,6,
3,3,3,7,7,7,{6}8/1,7/2,6/3,
(200){1}5/4>4[0.3##0.9]*<4[0.3##0.9],
(190),
{4},,(210){48}8/1,7/2,6/3,5h[16:59]/4h[16:59]/E4h[16:31]/E6h[16:15],{1},,,{4},,{16},,{24},{16}E5,
E6`E4,E7`E3`C,E8`E2,{2}E1,
E
