&title=うちゅうのふしぎ (TV size)
&artist=夢限大みゅーたいぷ
&first=-0.175
&des= A_ling
&lv_5=13
&des_5= A_ling
&inote_5=
(122){4},{8},C,,5,{16},5,{8}2/6x<2v4[4:1],
,6x/2x,,3x,,5,{16},5,{8}3/6,
4,5h[16:3],{16},4,{8}3/6,,3,{16},4,{8}7/3>7v5[4:1],
,3x/7x,,6x,,4h[4:1],,5h[16:3],
{16},3,{8}6/2h[16:3],{16},6,{8}3/7h[4:1],,2,{16},1,{8}2>4[8:1]/6<8[8:1],
,2x-6[8:1],,,,8h[4:1],,1,
{16},2,{8}4/3,{16},7,{8}5/6,,8-6[8:1]*-2[8:1],,,,1-7[8:1]*-3[8:1],
,,,5>2[8:1]*<8[8:1],{16},,,,,,,,,7,
{8}6/5,{16},2,{8}3/4,{16},6/3,{8}4bxqq5b[8:3]/5bxpp4b[8:3],
,,,,,6h[4:1],,5h[16:3],
,4h[16:3],,3h[4:1],,6,{16},4,{8}3/7-3[8:1],
,7x/8-4[8:1],,8x/1-5[8:1],,1x/2-6[8:1],,2x/7h[2:1],
{24},,,,,A3,,B3,,{8}Ch[4:1],,5,{16},6,{8}7>3[4:1]/3v5[4:1],
{24},,,D8,,D1,,D2,,{8}D3,,5,{16},4,{8}6/3h[16:3],
{16},5,{8}2/6h[16:3],{16},4,{8}3/7,,6,{16},1,{8}2<6[4:1]/6v4[4:1],
{24},,,D2,,D1,,D8,,{8}D7,,7,{16},6,{8}5/3,
{16},3,{8}6/4,{16},5/4,{8}6/3,,4,{16},7,{8}6<8[8:1]/2>4[8:1],
,6-2[8:1],,,,8/1,{128},,,,,,,,,,,,,,,,D5,A5/B5,D6/E6,A6/B6,D7/E7,A7/B7,D8/E8,A8/B8,{16}D1,
{128},,,,,,,,,,,,,,,,D5,A4/B4,E4/D4,A3/B3,D3/E3,A2/B2,D2/E2,A1/B1,{16}D1,,,{8}B5/B6/B7/B8/B1/B2/B3/B4/Cf,{16},,,,,7,{8}6,
{16},6,{8}5,{16},5,{8}4,{16},4,{8}3,{16},3,{8}2h[8:3],
{16},,,,3x,4x,{8}5x,{16},6x,,7x,,3x,{8}2x/8bxqq5[8:3],
{16},4,{8}4,{16},3,,,,2,{8}2,{16},6,{8}7/1bxpp4[8:3],
{16},5,{8}5,{4}6,{16},6,6h[8:1]/E5,E4,E3,E2,{8}E1/7bxqq4[8:3],
,3,{4}1bh[8:1],3bh[4:1],{8}5,4h[16:3],
{16},6,{8}7/2,{16},8-4[16:1]/1-5[16:1],,,,Cf/B7/B6/B2/B3,,,,,{8}5/1bpp4[8:3],
{16},5,{8}6,{4}7,{16},7,{8}6h[8:1],,1/5bpp8[8:3],
{16},4,{8}4,{4}3h[4:1],{8},2bx-5[8:1],,2/7bx-4[8:1],
,7/1bxV35[8:1],,1/8bxV64[8:1],,8/2bx-6[8:1],,2/4bx-8[8:1],
,1bx<1s5[8:3],,,,,,7/2,
{16},6/3,{8}5/4,{16},B5/B6/E7/B7/B2/B8/E1/B1/E3/B3/B4/E5/Cfh[128:1],,,,,{8}4x,{16},5x,{8}6x/3x-1[16:1],
,3bx-7[16:1],,5/3bx,,4,{16},7,{8}6/5,
{16},2,{8}3/4,{16},5/4,{8}6/3,,7,{16},4,{8}3x/6x-8[16:1],
,6bx-2[16:1],,6bx/4,,5/4,6/3h[8:1],5,
{16},3,{8}7/4h[16:3],{16},6,{8}2/5h[16:3],,6/3,{16},6/2,{8}3x>1[16:1]/7x<5[16:1],
,7xv1[16:1]/3xv5[16:1],,7bx/3bx,,6bx/2bx,3,5/4,
{16},6,{8}5/7,{16},3,{8}2/4,,Cf/7-5b[16:1]*-1b[16:1],,7b,
,Cf/4-2b[16:1]*-6b[16:1],,4b,,Cf/1-7-5>1b[4:1]*-3-5<1b[4:1],,1bx,
{16},,,,,5,{8}3/6,7/2,8w4b[16:1],1/7,8bx<4-2-8b[8:7]*>4-6-8b[8:7],
{1},{4},{16}5,
4,{8}3h[4:1],,6x,{64},,,,,,,,E8,B8,{32}B1,,,,,,,{8}5x,
,C/B6/B2,,4x,{64},,,,,,,,E4,B4,{32}B5,,,,,,,,,,,,,{16}5x,
{32},3x,,,,,{16}4x,{8}6x,{16},5x,{8}Cfh[4:5],
{16},B6,,,,B3,{8}B6,{16},B7,{8}B2,{4}B7/B2/B3/B6,
{32}B8/B1,B7/B2,B6/B3,B5/B4,
E
