&title=紋
&artist=喜多村英梨
&first=0
&des=C3
&des_2=C3
&des_3=C3
&lv_4=14
&des_4=C3
&inote_4=(132){4},,,,
(66){4}
5qq4[4:2],,6,,
3qq2[4:1],,4,,7>3[4:1],,4pp5[4:1],,8>6[4:1],,8,,
1qq8[4:1],,5qq8[4:1],,,
(150){4}
1b,
(160)
||
4/4
{16}7-5[16:1],,,5h,
,,2h[16:4],,
,,4,,
2,,,,
{16}3-5[16:2],,,,
6,,6h[16:4],,
,,7,,
5,,3,,
{16}6-4[16:1],,,4h,
,,2h[16:4],,
,,3,,
1>5[16:4],,,,
{16}5h,,,6-8[16:1],
,,6h,,
4,3,2,1,
7,6,5,4,
{16}2-4[16:1],,,4h,
,,5-1[16:2],,
,,6,,
6,,,,
{16}7qq6[16:4],,,,
1,,1h[16:4],,
,,7,,
2,,8,,
{16}3-5[16:1],,,5h,
,,6v1[16:2],,
,,8,,
8z4[16:4],,,,
{16}7h[16:8],,,,
,,,,
3,2,1,8,
4,5,6,7,
{16}3V51[16:3],,,5h,
,,8h[16:4],,
,,2,,
8,,,,
{16}7-5[16:2],,,,
4,,4h[16:4],,
,,3,,
5,,7,,
{16}4V62[16:3],,,6h,
,,8h[16:4],,
,,1,,
8<4[16:4],,,,
{16}4h,,,3-1[16:1],
,,3h,,
5,6,7,8,
2,3,4,5,
{16}7V51[16:3],,,5h,
,,2-4[16:2],,
,,8,,
8,,,,
{16}4V25[16:3],,,5h,
,,7-3[8:1]*-4[8:1],,
,,,,
,,,,
{16}8V62[16:3],,,2h,
,,3-5[16:2],,
,,1,,
1h[16:4],,,,
{16}5b,8,5,6,
4b,7,4,5,
3b,6,3,4,
2b-6[16:2],4,8,,
{16}2/6b,,,,
58,,5/8h[16:4],,
,,4,,
6h[16:2],,3,,
{16}5,,2,4,
,4,3,,
7,,5,,
5-2[16:2]/6,,,,
{16}7b,,,,
41,,4/1h[16:4],,
,,5,,
7h[16:2],,3,,
{16}4,,7,5,
,5,6,,
2h[16:2],,4<7[8:1],,
3/4,,,,
{16}2b-8[16:2],,,,
52,,6,6,
4,,3h[16:2],,
5h[16:2],,7,,
{16}8b-4[16:2],,,,
81,,3,3,
5,,6h[16:2],,
4h[16:2],,2,,
{16}1b>7[16:8],,,,
7,,7,,
8,,8,,
1,,1,,
{24}8b/6b,,,7,6,5,
{16}4,,2b/8b,,
{24}6,5,4,3,2,1,
{16}8b/3bV58[16:6],,1b/6bV41[16:4],,
{16},,,,
,,,,
,,,,
3-5[16:2]/4-7[16:2],,,,
{16}4>1[16:2]/3,,,,
8-4[16:2],,,,
87,,6>3[16:2],,
,,6/1h[16:6],,
{24},,,3,4,5,
6,7,8,5-2[16:2]/1,,,
{16},,8,,
6-4[16:2],,,,
{16}6,,1,1,
3h[16:2],,8,8,
5<8[16:2],,2>5[16:2],2,
5qq4[16:4],,2,,
{16},,1b,,
1b,,,,
8,5,7,5,
6,4,5,4,
{16}2-5[16:2],,1-6[16:2],,
2,,1,,
4-8[16:2],,3-1[16:2],,
4,,3,,
{16}7-4[16:2],,8-3[16:2],,
7,,8,,
5-1[16:2],,6-8[16:2],,
5,,6,,
{16}2b,,,,
56,,45,,
43,,2/5,,
3/6,,{24}4>5[4:1],3,2,
{24}7,6,5,{16}4qq3[8:1],,
,,4b,,
,,,,
6-4[16:2]/5-2[16:2],,,,
{16}5<8[16:2]/6,,,,
1-5[16:2],,,,
12,,3<6[16:2],,
,,3/8h[16:6],,
{24},,,6,5,4,
3,2,1,4-7[16:2]/8,,,
{16},,1,,
3-5[16:2],,,,
{16}3,,8,8,
6h[16:2],,1,1,
4>1[16:2],,7<4[16:2],7,
4pp5[16:4],,7,,
{16},,8b,,
8b,,,,
1,4,2,4,
3,5,4,5,
{16}7-4[16:2],,8-3[16:2],,
7,,8,,
5-1[16:2],,6-8[16:2],,
5,,6,,
{16}2-5[16:2],,1-6[16:2],,
2,,1,,
4-8[16:2],,3-1[16:2],,
4,,3,,
{16}7b,,,,
43,,54,,
56,,74,,
6-8[16:2]/3-5[16:2],,52,,
{16},,,,
6bpp3[16:4]/1b,,,,
,,,,
,,,,
{24}7b>3[16:2],,,4,5,6,
{16}7,,5pp6[16:2],,
,,4b,,
4b,,,,
{24}2b<6[16:2],,,5,4,3,
{16}2,,4qq3[16:2],,
,,5b,,
5b,,,,
{16}7,4,7,5,
7,6,7,8,
{32}6pp7[16:2],5,4,3,2,1,8,7,
{16}6b,,,,
{24}3,2,1,86,5,4,
3,,,1,2,3,
4/6V84[16:14],7,8,1V74[16:12],,,
{16}6b,,1b,,
{16},,,,
,,
&des_7=C3
