&title=NO x
&artist=Juggernaut
&first=-0.38
&lv_4=13+
&des_4=OrAngel
&inote_4=
(190){4},{2},,,,,{4}4xh[4:1],
{1}5<3[2:3],
{4},,,4h[4:1],
{1}3>5[2:3],
{4},,,4h[4:1],
5,5,3,3,
7,7,1,1,
8,8,{8}2,7,2,7-5[8:1],
,1b,,{16}2,4,{4}2-4[8:1],5,
{8}6x,4,5,3,,{16}5,4,{8}5,4,
3x,5,4,6h[4:1],,5h[4:1],,7b,
6x,4,5,3,,{16}2,4,{8}2,4,
3x,5,4,7h[4:1],,5h[4:1],,{16}6,4,
{4}8x-4[8:1],{8}3,3h[4:1],,4h[4:1],,1,
{4}6-2[8:1],{8}5,5,,3/4,5,6,
{4}7h[2:1],{16}A8,D1,A1,D2,A2,D3,A3,D4,A4,D5,A5,D6,
{8}A6,1x,,{16}2,8,{4}2-5[8:1],8-5[8:1],
{1}8b,
,Ch[1:2],
,8x-2-7-3-6-4[2:3],
,{8}3h[2:1],
4,{4}4,4h[4:1],{8}5,5,
{4}6h[4:1],1h[4:1],4h[4:1],5,
{1}6x-8-5-1-4-2[2:3],
,{8}6h[2:1],
5,{4}5,5h[4:1],{8}4,4,
{4}3h[4:1],8h[4:1],5h[4:1],{8}4,4,
{4}4<7[8:1],4,5>2[8:1],5,
8<5[8:1],8,1>4[8:1],1,
{8}6,5,{4}6h[4:1],4h[4:1],{8}5,3,
{4}7-5[8:1],1-3[8:1],8-4[8:1],{8}1,2,
{2}3h[4:1],2h[4:1]/4h[4:1],
1h[4:1]/5h[4:1],{4}6/8h[4:1],7>7-2-5-7[1:1],
{8},,,,,,,{16}8x-4-6-1[8:3],1x,
{2}2xh[4:1],{16}2x,3x,4x,5x,6x,7x,8x,1x,
{4}2bx,{16}3,4,3,4,3,5,3,5,3,6,3,6,
{4}3-8[8:1],3/4,6-1[8:1],6/5,
{2}2h[4:1],{4}3b/5b,{16}4,6,4,6,
4,7,4,7,4,8,4,8,3,1,3,1,4,8,4,8,
{4}5-3[8:1],7,1b/5b,{16}8,7,8,7,
{4}6/1-5[4:1],5-1[4:1],8,6,
7h[4:1],5h[4:1],1h[4:1],{8}3,2,
{4}1-5[8:1],1,8-4[8:1],8,
{8}3x/5x,2,{4}1/7,{8}8,{16}2,1,2,1,2,1,
{4}2-5[8:1],8-5[8:1],{8}1,1,{4}1-5[8:1],
,6,{8}4/3,3/4,{16}2,4,2,4,
2,5,2,5,3,5,3,5,4,5,4,5,4,6,4,6,
{2}4-2[8:1],5-2[8:1],
4-7[8:1],5-7[8:1],
4h[4:3],{8}8,{4},{16}4,8,
{2}4h[1:1],{16}A8,D8,A7,D7,A6,D6,A5,D5,
{2},{16}3x,3x,3x,3x,,2x,{8}2x,
{16}1x,1x,1x,1x,{8},{16}8x,8x,8x,8x,,7x,{8}7x,{16}7x,7x,
{2}6bx/5bx,3-8[8:1]*-7[8:1],
1-6[8:1]*-5[8:1],7-4[8:1]*-3[8:1],
5b,{16}6x,6x,6x,6x,7x,7x,7x,7x,
,8,,8,{8},{16}1x,1x,1x,1x,,2x,{8}2x,{16}2x,2x,
{2}3bx/4bx,6-1[8:1]*-2[8:1],
8-3[8:1]*-4[8:1],{8}2,2,{16}3x,3x,3x,3x,
{1}4bx,
{8},,,,,,,{16}6,4,
{1}5,
,{2}3h[4:1],
4/2h[4:1],
1/5h[4:1],6/8h[4:1],
7h[1:1],5-8-4-1[2:1],
{4}C,Ch[4:3],{2},{4}1,
1,1,1,
2,2,2,2,
3/4,3,3,3,
4/5h[4:3],4,4,4,
{2}6h[4:1],7h[4:1]/5h[4:1],
8h[4:1]/4h[4:1],{4}3/1h[4:1],2<2-7-4-2[1:1],
{8},,,,,,,{16}1x-5-3-8[8:3],8x,
{2}7xh[4:1],{16}7x,6x,5x,4x,3x,2x,1x,8x,
{1}7bxh[1:1],
A6,
{4}5x/4x,{8}2x/6x,4x/5x,,{16}7,3,{4}7>7>8[2:1],
{2},{16}1x,1x,1x,1x,1x,1x,1x,1x,
{8}1x-5[8:1],8x,7,6-8[8:1],4,3,2,1,
8x-4[8:1],1x,2,3-1[8:1],5,6,7,8,
2,6,2-6[8:1],7-3[8:1],{4},{8}2,5,
1,7,4,6,3,5,2,8,
1,{16}3x,4,{8}3,{16}6x,5,{8}6,{16}2x,1,{8}2,{16}7x,8,
{8}7h[2:1],6,5,4,3h[2:1],2,1,8,
7V53[4:1],8,2,2,1-3-5[4:1],8,6,6,
7-4[8:1],7,8-3[8:1],8,1-6[8:1],1,2,2b,
8x-4[8:1],1x,2,3-1[8:1],5,6,7,8,
1x-5[8:1],8x,7,6-8[8:1],4,3,2,1,
7,3,7-3[8:1],2-6[8:1],{4},{8}7,4,
8,2,5,3,6,4,7,1,
8,{16}6x,5,{8}6,{16}3x,4,{8}3,{16}7x,8,{8}7,{16}2x,1,
{8}2h[2:1],3,4,5,6h[2:1],7,8,1,
2V46[4:1],1,7,7,8-6-4[4:1],1,3,3,
2-5[8:1],2,1-6[8:1],1,8-3[8:1],8,7,7b,
6x/4x,5,4,3,,,,{16}1x,1x,
{8}1x,{16}7x,7x,{8}7x,{16}3x,3x,{8}3x,{16}5x,5x,{8}5x,4,
5,5,2,3,,5,{4}6,
{8}4h[4:1],{4},{8}6,6/5,7,4/3,2,
{4}5h[8:3],{8}6,6,,6/4,7,8/2,
,3/4,2,1,8/7,6,2,8-6-4-2-7-5p1p4[8:7],
{1},{2}3h[2:1],
{16}2bx,2bx,2bx,2bx,2bx,2bx,2bx,2bx,
{1}2bx/Cf,
,E7,
{2}B1,D4,
{1}B7,
B2,
8h[8:9],
{8},1x,,{16}2,7,{4}2,5w1b[8:1],
{1}5bx,
E
&lv_5=14
&des_5=OrAngel
&inote_5=
(190){4},{2},,,,,{4}Ch[4:1],
4x,3,2,6,
1v4[4:1],{8}7,6h[4:1],,5,{4},5,
6,7,3,
8<5[4:1],{8}2,3,,4,5,6,
{4}4/7h[4:1],4,3/7-1-5[2:1],3,
2,2,{8}2/6,3,4/5,6,
{4}7h[4:1],5h[4:1],8h[4:1],6h[8:3],
{8},1-7[8:1],,{16}5x/1,4,{4}3-1[8:1],3b/E7f,
{8}6/8h[8:3],5,4,3<6[8:1],,{16}8x,1,{8}2,4,
7/5,6,7,8/1v6[8:1],,1/3,,8,
3/1h[8:3],4,5,6>3[8:1],,{16}1x,8,{8}7,5,
2/4,3,2,1/8v3[8:1],,8/6,,{16}4,6,
{4}1h[4:1],{8}3,3<8[8:3],,2,,1,
{4}3h[4:1],{8}4,4,,5,,2,
{4}7<5[8:1],{16}4x,3,2,1,8/4,3,2,1,8,7,6,5,
{8}4h[8:1],1b,,{16}1,8,{4}2-5b[8:1],2b/8w4b[8:1],
{1}8b/B8f,
,Ch[1:2],
,8x-5[4:1]*-4-1>1[2:3],
,{8}3,
5,4,6,3,5,2,4,
3,6,5,7,2,8,1-5b[8:1],7,
{1}1b/8-4-8>1-4<6[2:3],
,{8}6,
4,5,3,6,4,7,5,
6,3,4,2,7,1,8-4b[8:1],2,
8b,2,3,5,{16}4,6,{8}4,7,3,
6/4,5,3,7,{16}4,6,4,6,{8}2,{16}8,8,
{8}7/1-3[8:1],1,6,6,{16}4,7,4,7,{8}2,6h[16:1],
{16}3,5,3,5,{8}2,{16}8,8,1,7,1,7,2,8,2,8,
{2}3<6[4:1],2>6[4:1],
1>6[4:1],8>6[4:1],
8h[2:1],{16}7,8,7,8,7,8,6x,1,
{2}7h[16:11],{16}8x,1,2,3,4/8,1,2,3,
{2}4bh[4:1],{16}3,5,3,5,4>8[4:1],6,4,6,
{4}4<8[4:1],4,1w5[8:1],1,
{2}Cf,{4}3b/7b,{16}2,8,2,8,
1,7,1,7,2,6,2,6,3,5,1,7,3,5,1,7,
{4}3h[4:1]/8-2[8:1],8-6[8:1],{16}3/A8,A7,{8}A6,{16}2-8b[8:1],5,2,5,
{4}2bx/4-6b[8:1],4bx/3-7b[8:1],3b/5w1b[8:1],5b,
7h[4:1]/3>8[8:1],3,3h[4:1]/7<4[8:1],{8}7,2,
{4}1<6[8:1],1/4,8/5<8[8:1],{16}5/8,1,2,3,
{8}4x-8[8:1],4,6b/4,5,{16}1,4,1,4,2,3,2,3,
{8}1-5[8:1],1,{4}1<6[8:1],{8}3/1-5[8:1],2,7/1,8,
{4}2/1-6[8:1],{8}3,3,{4}4/5h[4:1],{16}3,4,3,4,
2,5,2,5,1,6,1,6,{8}8-3[8:1],7-4[8:1],8,7,
{4}2h[8:1],2h[8:1],1h[8:1]/3h[8:1],1h[8:1]/3h[8:1],
{8}4/8h[8:1],4,8/4h[8:1],8,7/5,7/5,6h[8:1],1h[8:1],
{2}4<8[4:1],{8}2>6[4:1],{4},{16}7,8,
{4}1h[4:1],5>2[16:3],{16}1/5,8,7,6,5/1,8,7,6,
{2}5b-2[8:1],{16}1,1,1,1,,8,{8}8,
{16}1h[32:1],1h[32:1],1h[32:1],1h[32:1],{8},{16}1,1,1,1,,8,{8}8,{16}8,8,
{2}1x-4[8:1]/7x-4[8:1],{32}E3,B2,B1,E1,{8},{32}E7,B6,B5,E5,{8},{32}A3,
E3,E2,A1,{8},{32}A7,E7,B6,B5,{8},{32}E3,E2,E1,A8,{8},{32}D7,A6,A5,A4,{8},{2}Cf,
{16}4,4,4,4,4h[32:1],4h[32:1],4h[32:1],4h[32:1],
,5,,5,{8},{16}4,4,4,4,,5,{8}5,{16}5,5,
{2}4x-1[8:1]/6x-1[8:1],{32}E7,B6,B5,E5,{8},{32}E3,B2,B1,E1,{8},{32}A7,
E7,E6,A5,{8},{32}A3,E3,E2,A1,{8},8x/7x,5/6h[8:1],{16}8,7,6,5,
{8}4bh[4:3],{4},,,{16}7,5,
{8}7,{16}2,4,{8}2,{16}6,5,{8}6,{16}3,4,{8}3,4,
4,5,7,6,,6,{4}4<7[4:1],
{8}4,{4},{8}6,3,5,4,7,
{4}1/6,{8}3,8-5[8:1],{4},{8}1,6-1[8:1],
{4},{8}2,8<5[8:1],,1,2,4h[8:7],
{4},{8}5,5,6,6,7,8,
{2}1x-5[8:1],Ch[2:1],
{4}5x,{8}5,6h[4:3],{2},{8}5,
4h[4:1],5,6h[1:1],{2},{4}8,
{8}8,2h[8:5],{2},{4}7-1[8:1],
6-2[8:1],{2}5-3[8:1],
2h[4:1],{4}3/1h[4:1],3,
8/4h[4:1],8,7h[8:1]/5h[8:1],5h[8:1]/7h[8:1],
{2}6h[2:1],{16}5,6,5,6,5,6,4x,7,
{2}2h[16:11],{16}1,8,7,6,5/1,8,7,6,
{1}5bh[1:1],
Ch[1:1],
{4}3x-1[8:1],{8}3/4,5x-7[8:1],,{16}8,8,{4}8h[16:7],
{16}7,6,5,4,1,2,3,4,5bx,5bx,5bx,5bx,5bx,5bx,5bx,5bx,
{8}5bx,4,6/5,7,1/6-1[8:1],2,6/3-6[8:1],4,
3/6-1[8:1],7,8,7,2/6>3[8:1],7,2/6,2,
1-5[8:1],7,1/2,3,6/4-1[8:1],5,3/4-7[8:1],2,
4/7-2[8:1],6,5,5,3/4,2,1/8,7,
5/6,{16}3,4,{8}3,{16}6,5,{8}6,{16}2,4,3,7,5,6,
1,7,1,7,2,8,2,8,2bx,1,8,7,2bx,1,8,7,
6x/2xh,5,4,3,2/4xh,1,8,7,6/2b,1,8,7,6/8xh,5,4,3,
2/7b,8,1,2,3/1xh,4,5,6,7/2b,3,4,5,6/8b,7,6,5,
{8}4bx,5,3/4,2,8/3-8[8:1],7,3/6-3[8:1],5,
6/3-8[8:1],2,1,2,7/3<6[8:1],2,7/3,7,
8-4[8:1],2,8/7,6,3/5-8[8:1],4,6/5-2[8:1],7,
5/2-7[8:1],3,4,4,6/5,7,8/1,2,
4/3,{16}6,5,{8}6,{16}3,4,{8}3,{16}7,5,6,2,4,3,
8,2,8,2,7,1,7,1,7bx,8,1,2,7bx,8,1,2,
3x/7xh,4,5,6,7/5xh,8,1,2,3/7b,8,1,2,3/1xh,4,5,6,
7/2b,1,8,7,6/8xh,5,4,3,2/7b,6,5,4,3/1b,2,3,4,
{8}6x,4,5,2,,,,{16}7,8,
{8}7,{16}2,1,{8}2,{16}7,6,{8}7,{16}3,2,{8}3,4,
5,6,1,2,,2,{4}3,
4h[4:1],{8}6,5,4,3,6,7,
{4}5h[4:1]/8-6[8:1],8-2[8:1],{8}5,4,3,2h[4:1],
{4},{8}2,1,8,7,8,1h[8:3],
{2},{8}8,8,{4}1>4[4:1]*<6[4:1],
{2},{16}5,5,5,5,5<5[4:7],5,5,5,
{1}5b,
,4b>4[2:3],
{8},,,,,3,2,1,
{1}8b-4<5-1[2:3],
,8h[8:7]/2bV85[2:1],
{8},7b/4b,,{16}5,6,{4}5b>2[8:1],5b/8w4[8:1],
{1}8b/Cf,
E
&lv_6=1
&des_6=
&inote_6=
(125){4},
E
