&title=Disorder
&artist=HyuN
&first=0
&des=ImagineWind for AvaH
&des_5=ImagineWind for AvaH
&lv_5=14
&inote_5=(193){4},,,,{1}5h[8:3]/6bh[8:3],
4h[8:3]/3h[8:3],
4h[8:3]/6h[8:3],
5h[8:3]/3h[8:3],
{2}7h[2:1]/5h[8:3],5,
2h[2:1]/4h[8:3],4,
4h[8:3]/5h[8:3],4-1[1:2]/5-8[1:2],
{1},,{4}3b/6b,
{8}2,7/1-3[8:1],,5,{4}5h[4:1],
{8}4,4,7,2/8-6[8:1],,5,4,3,
2/4,2,3/5,5,3/4,3,5/4,5,
{16}3,2,1,8,5,6,7,8,2,3,4,5,6,7,8,1,
{4}2b/6b,{8}7,2/8<5[8:1],,4,{4}4h[4:1],
{8}5,5,2,7/1>4[8:1],,4,5,6,
7/5,7,6/4,4,6/5,6,4/5,4,
{16}6,7,8,1,4,3,2,1,5,6,7,8,1,2,3,4,
{4}5b/1b-5[8:1],{8}6,7b<4[8:1],,2,{4}3b>8[8:1],
{8}6,5b-1[8:1],,3,{2}4b-7[8:1]*-1[8:1],
{4}8b-4[8:1],{8}3,2b>5[8:1],,7,{4}6b<1[8:1],
{8}3,4bh[4:1],,8,{16}3,7,3,7,2,6,2,6,
{2}1b-5[8:1],{8}6/4,{16}3,5,3,5,{8}3,
2-4[8:1],2,6-8[8:1],6,1-5[8:1],1,{4}5,
{16}3h[8:1]/4h[8:1],{8},{16}3h[8:1]/4h[8:1],{8},3/4,5h[8:1],2h[8:1],4,4,
{16}8,1,2,3,5,6,7,8,2,3,5,6,3,4,6,7,
{2}2/8b-4[8:1],{8}3/5,{16}6,4,6,4,{8}6,
7-5[8:1],7,3-1[8:1],3,8-4[8:1],8,{4}4,
{16}6h[8:1]/5h[8:1],{8},{16}6h[8:1]/5h[8:1],{8},6/5,4h[8:1],6h[8:1],1,1,
{16}4,5,6,7,1,2,3,4,6,7,2,3,7,8,3,4,
{2}8/5b-1[8:1],{8}2/8,{16}3,4,3,4,3,4,
{8}1b,{16}6,5,{8}7,{16}3,4,{8}2,{16}6,5,{4}8-4[8:1],
{16}3h[8:1],{8},{16}3h[8:1],{8},3/5,{16}7,6,5,4,{8}1,1,
2/8,{16}3,4,3,4,3,4,2,6,2,6,3,5,3,5,
{2}1b-5[8:1],{8}4/6,{16}7,5,7,5,7,5,
{8}8b,{16}3,4,{8}1,{16}6,5,{8}8,{16}3,5,{4}1-5[8:1],
{16}6h[8:1],{8},{16}6h[8:1],{8},6/4,{16}2,3,4,5,{8}8,8,
1b<6b[8:1]/2b>5b[8:1],1b/2b,{4},{8}7b/8b,8b/7b,{24}6x/1x,5x/2x,{6}4x/3x,
{4}7bx/1bx-5[8:1],{8}6,7<4[8:1],,2,{4}1-5[8:1],
{8}7,8-4[8:1],,2,{4}1-5[8:1]*-6[8:1],1b,
2/8b-4[8:1],{8}3,2>5[8:1],,7,{4}8-4[8:1],
{8}2,1-5[8:1],,7,{4}8h[4:1],{32}4h[64:1],3h[64:1],2h[64:1],1h[64:1],8h[64:1],7h[64:1],6h[64:1],5h[64:1],
{8}4bx/8bx-4[8:1],8x,3,2>5[8:1],2,7,8-4[8:1],8,
2,1-5[8:1],1,7,{4}8<5[8:1]*>3[8:1],8b,
{8}7/1b-5[8:1],1,6,7<4[8:1],7,2,1-5[8:1],1,
6,6,2,2,{16}7,1,7,1,{32}6,5,4,3,2,1,8,7,
{4}6bx/1bx-5[8:1],{16}5,6,{8}7<4[8:1],,{16}3,2,{4}1-5[8:1],
{16}6,7,{8}8-4[8:1],,3,{4}1-5[8:1]*-6[8:1],1b,
2/8b-4[8:1],{16}4,3,{8}2>5[8:1],,{16}6,7,{4}8-4[8:1],
{16}3,2,{8}1-5[8:1],,6,8,8,{24}1,2,3,7,6,5,
{16}3,4,3,4,{8}3h[8:1],{16}6,5,6,5,{8}6h[8:1],{16}3,4,2,4,
{8}3h[8:1],{16}6,5,7,5,{8}6h[8:1],{16}4,5,4,5,{8}3/6,3/6,
{16}2,8,3,7,{8}4h[8:1],{16}7,1,6,2,{8}5h[8:1],{16}1,8,1,8,
{8}1bh[8:1],{24}7,6,5,{8}1bh[8:1],{24}6,5,4,{2}8h[2:1],
{32},1-5>8b[32:103]/7-3<8[32:103],2/6,3/5,{8}4,{1},,,{4},,,{1}5/3p2[2:1],
4/6q7[2:1],
8/5p4[2:1],
6V47b[2:1]/3V51b[2:1],
{8}5b/3bh[2:1],{2},{8}B5,B6,B7,
4h[2:1],{2},{8}B6,B7,B8,
2h[8:3],{4},{8}3h[8:3],{4},4h[4:3],
{1}5h[2:1],
{8}7h[2:1],{2},{8}E1,E2,E3,
{2}6h[2:1],4h[2:1],
{8}7h[8:3],{4},{8}6h[8:3],{4},5h[4:3],
{1}4h[2:1],
3bV51[2:1]/6bV47[2:1],
3b-7[2:1]/6b-2[2:1],
4b-8[4:7]/5b-1[4:7],
,{2},4b-1[8:1]/5b-8[8:1],
{4}6/3,{8}8/4,5-2[8:1],,8-4[8:1],,3h[4:1],
,6,4-8[8:1],4,{4}6>3[8:1],1-5[8:1],
8-4[16:3],{8}3,2<7[8:1],,5,{4}6h[4:1],
{16}8,7,8,7,1,8,1,8,2,3,4,5,8,7,6,5,
{4}4/1b,{8}2/5,4-7[8:1],,1-5[8:1],,6h[4:1],
,3,5-1[8:1],5,{4}3<6[8:1],8-4[8:1],
1-5[16:3],{8}6,7>2[8:1],,4,{4}3h[4:1],
{16}8,2,8,2,7,1,7,1,6,8,6,8,{4}5/7>5b[4:1],
{48},D8,A8,D1,A1,D2,A2,D3,A3,D4,A4,D5,{4},{16}1bx,1,1,1,1bx-5[16:1],1,1,1,
1bx,{8},{16}3b/4b,{8},5b/6b,7b/1b,{24}2,3,4,{8}8b,{24}6,5,4,
{4}1b,{8}6,8/2-5[8:1],,2/8,{4}6h[4:1],
{16}3,4,3,4,2,5,2,5,1,8,7,6,5/8,1,2,3,
{4}4/8b,{8}2/5,4-7[8:1],,1-5[8:1],,6h[4:1],
,3,5-1[8:1],5,3<6[8:1],3,{4}8-4[8:1],
8/1,{8}3,1/7-4[8:1],,7/1,3,3,
1bv4b[8:1]/2b-5b[8:1],1b/2b,{4},{8}7bx/8bx,7bx/8bx,{32}7x/8x,6x/1x,5x/2x,4x/3x,{8},5bx/2bx,
{16}3,4,{8}3,2/5,1-5[8:1],6,1,8,
7/4,{16}6,5,{8}6,4/7,8-4[8:1],3,8,1,
2b/5b,{16}3,4,{8}1b,{16}7,5,{8}6,{16}1,4,{4}3h[8:1],
{16}7,3,7,3,6,2,6,2,5,6,7,8,{32}2,3,4,5,6,7,8,1,
{8}2b,{16}6,5,{8}6,7/4,8-4[8:1],3,8,1,
2/5,{16}3,4,{8}3,5/2,1-5[8:1],6,1,8,
7b/4b,{16}6,5,{8}8b,{16}2,4,{8}3,{16}8,5,{4}6h[8:1],
{16}2,6,2,6,3,7,3,7,4,3,2,1,{32}7,6,5,4,3,2,1,8,
{8}7/3b-7[8:1],5,3b,8-4[8:1],1,8b,2>5[8:1],6,
2b,6<1[8:1],4,6b,2-6b[8:1],8-4b[8:1],2b,8b,
1,7,{24}2b,3,4,7,{12},{8}1,{24}6b,5,4,{8}2,8,
{24}3b,4,5,8,{12},{8}2,{24}7b,6,5,{16}3b,4,1b,4,3b,4,{8}1bh[8:3],
{4},{32}8b<1b[2:7],B8,C,B4,{4},,,{8},B3,
E5,B6,E1,
