&title=retryment
&artist=不知道
&first=0
&lv_5=13.6
&des_5=板栗
&inote_5=
(125){32},4-7-2-4-6-8-2[0.42##5.58]/2>2>2>2V47-2v5-8[6##3.72],{1},,,,,{4},{16},{32}E6,
B5,B4,E4,{16},,,,,,,,,,,,,C,
{1},{4},,,{16},,,{48},{12}6,
5,4,5,4,3,4,3,
2,3,2,1h[24:11],{2},{12}1,8,
{1}7,
{8},6xh[6:5],{1},{32},Cfh[32:23],
{1},{4},{16},,,{12}6,
6,6,
6,6,6,6,6,6/5,6,6/5,6,6/5,6,6,
2,2,2,2,2,2,2,2,2,2,2,2/8,
2/7,2/6,2/5,2,2,2,2,2,3,4,4,5,
6,7,{6}8w4[0.24##0.16],,{12}8/1,{24}6,5,{12}6,8/1,{24}3,4,{12}3,
8/1,7/2,6/3,5-8[0.24##0.16]/4-1[0.24##0.16],{24},,,,,,,,,,,,,,,,,,,{8}6/5,
7/4,{24}6,,5,,7/4,{12},{24}6h[4:1],{12},{24}5,{12},7,
,6/C,{4},{12}5/4,,6/3,,{32}7-4[0.32##0.16],{8},{32}7,{48},,,,,,,{12}2-5[0.32##0.16],
,2,,C,{3},{6}6h[4:1],
5,7h[3:1],{8},{24}6,{6},{48}7/6,E6/E8,{96},{32}B5/B8,B4/B1,E4/E2,,,,B7,B6,E6,
,B2,B3,E4,{24},,,,,,,{12}6-3b[0.4##0.16],{8},3<2b[0.16##0.8],{3},,{12}1pp6[0.72##1.28],
{24},,,,,,,5h[3:2],{8},,,,,,,{24}7pp3[0.88##1.2],
{12},,,,,{6}5xh[8:5],
{4},,,{12}5h[4:3]/4h[4:3],
{24},,,,,,,,,,,,,,,,,{32}A5/A4,E6/E4,B6/B3,B7/B2,
{16},,,,,,,{64}8x,7x,6x,5x,{2}4xh[24:11]/1bpp6[0.24##0.72],
,{32}8x,7xh[32:3],,,,,,3x,{4}4xh[32:3],
{32}7bx,6bxh[32:11],,,,,,,,,,,,,,,,,,,,8bx/1bx,{8},{32}2bx,3bxh[32:3],,,,,,6x,
{16}5xh[32:3],,,,{32}2x,3x,{8}4bxh[2:1],{16},,,,,,,,,,,,,7/8>4[64:23],
,6,,1/8,{8},,,{32}2>4[0.54##0.36],
{8},{32}4>2[0.6##0.3],{8},,,{16}7h[8:1],{32},,,6,{16},5h[8:3],,,,,,6b,
{32},,,7b,{8},8b/1b,{4},{24}1/8h[32:27],,1,
,1,,1,,2,,3,,4,,4,,4x,3x,2x,{48}1x,{8},{48}8w4[0.18##0.3],{3},{24}8,
1,8,1,8,1,8,1,8,1,{96},{64}8x,7x,6x,5x,4x,3x,2x,1b-5b[0.18##0.42],{2},{32}5v7[8:1],
{16},7>2b[0.54##0.24],,{32}2bx,5>2[0.24##0.24],{16},,,,,,,5-2b[64:9],
{32},,,5-8[0.42##0.18],{16},1,,1,,,,,,2,{32},3,{16},{8}4/5,
{32},,,8>3[0.18##0.24],,,,3<6[0.18##0.24],,,,,,,,,,,,7b,{4},{32}8bx/1bx,{16},{32}7b-4[8:1]/2b-5[8:1],
,,,,,,,7bx/2bx,{16},,,,,8/7,{64}6,{32},{64}5,{32},3/4,,,,,,1/2,,,,,,6b-1b[0.3##0.18]/5b-1b[0.3##0.18],
{8},{4}6/5,{32},,,4b-8b[0.3##0.18]/3b-8b[0.3##0.18],{8},{4}4/3,
{32}8-4b[0.3##0.12]/1-5b[0.3##0.12],{8},{32}8<5b[0.3##0.12]/1>4b[0.3##0.12],{2},{16}2qq6[0.54##0.66],{32},,,,,,,6x,
,5xh[16:3],,,,,,,,,,7pp3[16:5],,,,,,,,3x,,4bxh[16:3],,,,,,,,,,,,7/6,
,,,2/3,{8},{16}5/4,{32},,,8/1,,,,,,8-6b[0.36##0.18]/1-5b[0.36##0.18],,,,,,8bx/1bx,{8}Cf/E7f,
{32},1-3b[0.3##0.18]/8-4b[0.3##0.18],{8},{32}8bx/1bx,Cf/E3f,{4},{32}2>5[0.3##0.42],{8},{32}5v3[0.42##0.42],{16},{32}8x,7x,6x,5x,,,,,,,,,,{64}8bx,
7bx,{16}6bx,{32},{64}1x,2x,{16}3x,{64},,,,,8x,7x,6x,{16},,,{32}1x/Cf,2x,3x,4x,5x,6x,7x,8x,1x,2x,
{64}3x,A1,,D2,A2,D3,A3,D4,A4,D5,A5,D6,A6,D7,A7,D8,A8,D1,{32}A1,{4},,{16},,{32},6h[32:33]/7h[32:11],
,,,,,,,,,,,8h[16:5],{16},,,,,1,,2,,3,
{32},,,,,2h[16:15]/8-6[0.3##0.18],{8},{16}8,{32},,,,,8-4[0.3##0.18],{8},{16}8>6[0.3##0.54],,,,,,,,,,7b,
,1,{32},,,,,,,,,,,,,,,,,6x,
,5xq8[32:17],,,,,,,,Cf,{4},{8}1-6[0.36##0.18],{16},1-4[0.42##0.18],{32},,,,,,,,,,,,,5b,
,,,,,,,6/3,,5q8b[0.3##0.72]/4p1b[0.3##0.72],,,,,,,,,,,,,,,,,,B6,
,,,B3,,,,,,,,,,,,,,E8,{4}B7,
{32},,,,,,,,,,,,,,,,,B7,,,,,,,,,,,,,,,,,,B2,
{4},,{16},,,{32},6,5,4,{16}3b-6b[0.36##2.58],
E
