&title=ベィスドロップ・フリークス
&artist=かめりあ,ななひら
&first=0.03
&des=iimachi chart team
&lv_5=14+
&inote_5=(179)
{1},
{8},,,E8,,E2,,E6,,E4,5xq1[32:4],,
{32}1bx-5[32:4],2x,3x,,,,,,{8},,4b,3/7-3[16:2],,8b,,1>6[16:4],,6bp1[32:7],,,,,
{32}8bx-4[32:4]*q4[32:4],7x,6x,,,,,,{8},,2b/6b,,1,1>6[16:4],,6-1[32:4]*-8[32:4],,,,,
6<1[32:4],,
{32}1bx-6[32:4],2x,3x,,,,,,{8},,2,3/8-4[8:1]*-5[8:1],,8b,,6/1-5[32:4]*-4[8:1],,1b,,7h[8:3]/3,,,
1,1,1pp4[32:12],1,5,5,5-7b[32:2],5,{16}5bx-8b[32:2],,,5bx-1b[32:2],,,5bx-2b[32:2],,,,,,
{8}6h[8:2],,{32}1b,2x-7[32:4],3x-6[32:3],4x,,,,,{8},,
8h[8:1],7h[8:1],6h[8:1],4h[8:1],
8h[8:1],7h[8:1],6-1[8:1],4V25[8:2],3,,,,
{32}8bx>4[32:5],7x,6x,5x,,,,,{8},,1b,,45,3-8[8:1],,3V57[32:7]*<4-6-8[32:7],,,,,
1h[8:1],7h[8:1],{32}1x,2x,3x,4x-1[8:1],,,,,{8},,8-6[32:3],8-2[32:3],8-4[8:1],,,,1p7[8:3],,7/1b,,,,
{16}6h[16:2],,7,7h[16:2],,8,8h[16:2],,1,1h[16:2],,7,8,1,2,3,4,51,,,2p6[8:1],,6V84[16:5],,2b,,,,,,,,
{8}6,,6,,3,,3,,6,,6,,A3/E4,A6/E6,B8/B1,,6,6,4h[8:2],,{16}A6,,,E5,,,A3,,,,,,
{8}18,,A7/B7/B6/E7/A6,,A2/B2/B3/E3/A3,,
{8}6,6,6,6,3,3,3,3,6,6,6,6,{16}A3,E4,E6,A6,B1,B8,,,
{16}5,4,5,3,5,2,5,1,5,8,5,8,5<8z4>1-5b[16:11],8,5,8,5b,,,,,,,,,,,,3b-8[32:4],,,,
7b/3b,,,,6v5[8:1],,2v3[8:1],,6v7[8:1],,2v1[8:1],,,,,,,,,,6/2h[8:2],,,,
4,2,1,2,4q1[8:1],2,1s5[16:4],2,,,,,2>8[16:4],,,,7b,,,,,,,,
61,,72,,83,,1/4h[32:17],,
{32}8,7,6,5,,3,2,1,8,7,6,5,,3,2,1,
{16}8b/4b,,,,3v4[8:1],,7v6[8:1],,3v2[8:1],,7v8[8:1],,,,,,,,,,3/7h[8:2],,,,
{16}5,7,1,7,4,6,3,5,A2/B2/E2,,,,
8,7,6,5,4bx,2hx[16:1],3hx[16:1],4hx[16:1],5hx[16:1],,,
6,5,,8,2,,5b,3,7,8bh[8:1],,6,2bh[8:1],,5-8[8:1],4bh[8:1],,
,,,,2v1[8:1],,6v7[8:1],,2v3[8:1],,6v5[8:1],,,,,,,,,,2/6h[8:2],,,,
{12}4-1[8:1],4,4,8-5[16:2],8,8,2bq6[8:1],,,{16}7<1[16:4],,,,4b,,,,,,,,
38,,72,,16,,5h[32:17]/8,,
{32}1,2,3,4,,6,7,8,1,2,3,4,,6,7,8,1b/5b,,,,,,,,
{16}7v8[8:1],,3v2[8:1],,7v6[8:1],,3v4[8:1],,,,,,,,,,6/2h[8:2],,,,
4,2,8,2,5,3,6,4,7qq4[8:3],,,,3qq8b[16:6],,3,,3b,,,,,,,,
7h[16:3],,,5h[16:3],,,3h[16:3],,,{48}1bh[16:3],,,,,,,,,
{16}3>4[32:11],4,5,6,7b,,,,,,,,
{16}3x/6x,,2-6[8:1],5,1,6,2,,8,,8h[8:1],,
{16}3-6[8:1],5,2,6,3b,,,,
{16}8>6[32:10],7,6,5,4,,,,7-2[8:1],,7,,
{16}1b,,,,3<4v5<6[8:2],,2,,6>5v4>3[8:2],,,,7,,8,,8bh[16:4],,,,
{16}6<5[32:11],5,4,3,2b,,,,,,,,
{16}6x/3x,,7-3[8:1],4,8,3,7,,1,,1h[8:1],,
{16}6-3[8:1],4,7,3,6b,,,,
{8}2-4[32:3],,2-5[8:1],1,8-6[32:3],7,8-5[8:1],1,2-4[32:3],3,2-5[8:1],1,8,7,
{16}7,8,,2,1b,,,,
{8}
3-8-3[8:2],3,7,7,6-1-6[8:2],6,3,3,
2-5-2[8:2],2,6,6,7-4-7[8:2],7,2,2,
1>4>1[8:2],1,6,6,8<5<8[8:2],8,3qq8b[8:3],3,,,,,{16}7,6,5,4,7,6,5,4,
{8}
7p3q7[8:2],7,2,2,1q5p1[8:2],1,6,6,
8p3q8[32:10],8,2,2,1-5[8:1],1,,,
{16}3h[16:2],,2,2h[16:2],,1,1h[16:2],,8,8h[16:2],,2,1,8,7,6,5,8b/4,,,7q3[8:1],,3V15[32:8]*V17[32:8],,7b,,,,,,,,
6bhx[8:2]/4bx,,,,8h[8:1],,4h[8:1],,3h[8:1],,1h[8:1],,5>3[32:3],,,6,5,,
7h[8:1],,1h[8:1],,6,,{24}6-1[32:4]*-8[32:3]/1,2,3,4,5,6,,,,,,,{24}
3,4,5,7,6,5,2,3,4,8,7,6,
{16}1b,,,7h[8:1]/6h[8:1],,,{16}3b/4b,,,,{16}2b,4,{16}4,4,4,4,2b,,7,1b,,6,8b,,
2h[8:2]/5b,,,,1h[8:1],,5h[8:1],,6h[8:1],,8h[8:1],,4<6[32:3],,,3,4,,
2h[8:1],,8h[8:1],,2,,{24}3>1[32:3]/8,7,6,5,4,3,,,,,,,
{24}7,8,1,2,3,4,5h[8:3]/6,7,8,1,2,3,
{16}4b,,,6h[8:1]/7,,,{16}3/4h[8:1],,
{8}1V38[16:3],,8bx,8-3-5[16:3],,7bx,7qq7b[32:9],,4hb[8:4],,,,
{16}8h[8:1],,2h[8:1],,5-1[32:4],,,4,5,,
3h[8:1],,7h[8:1],,3,,{24}3-8[32:4]*-1[32:3]/8,7,6,5,4,3,,,,,,,
{24}6,5,4,2,3,4,7,6,5,1,2,3,
{16}8b,,6/2b,,{16}3b/5,,8b,,,,{16}7b,5,{16}5,5,5,5,7b,,1,8b,,2,1b,,
7h[8:2]/4b,,,,3h[8:1],,4h[8:1],,
{16}1h[8:1],,6h[8:1],,4-1[32:4],,,5,4,,
7h[8:1],,2h[8:1],,7,,{24}6<8[32:3]/1,2,3,4,5,6,,,,,,,
{16}
3,4,3,4,3,4,3,4,
{12}2,4,5,7,5,4,
{16}2,,,8,,,6,,4/5w1[8:1],,,,,,,,
{32}2bx/8bx,3b/7b,4b/6bh[32:6],,,,,,
{16}
3p7[8:1],,7-3[8:1],,3-6[8:1],,6-4[32:3],,,,,,
8-5[8:1],,8,,4-1[8:1],,4-7[32:4],,4qq5[8:2],,,,,,,,
6,,6,,61,,6,5,7,,7,,7qq1[16:5]/1,,7,,
3,,,,,,,,
{32}3,4,5,6,7,8,1,2,3-7[32:4],4,5,6,7,8,1,2,
{16}5b,,,,6q2[8:1],,2-6[8:1],,6-3[8:1],,3-5[32:3],,,,,,
1v2[8:1],,1,,5-7b[32:3],,5-3b[32:3],,,,,,8,7,6,5,
4-8[8:1]/8,,,,41,,2,,3-7[8:1],,6,,35,,4,,
1>4[8:1],,8-4[8:1],,1-5[8:1],,8<5[8:1],,1pp6[8:3],,,,,,,,
{16}5,,5,,5,,5,,3,,1,,1,,1,,
2,8,2,7,2,6,2,5,
{24}2,4,2,4,2,4,2-6b[8:1],4,2,4,2,4,
{1}2bq3<1b[8:6],,,
