&title=3HP MISSIONS
&artist=cybermiso
&first=2.25
&des=Kurene_Sarknights
&lv_5=14
&lv_6=14
&lv_7=枷
&inote_2=
&inote_5=(110)
{48}8b/1b,72,6h[24:23]/3h[24:17],{16},,,,,,,,,,,,,,,
{48}1,2,3h[24:5],{16},,,8h[4:1],,,,{48}1,2,3h[24:5],{16},,,8h[4:1],,,,
{48}1b,27,3h[24:23]/6h[24:17],{16},,,,,,,,,,,,,,,
{48}8,7,6h[24:5],{16},,,2h[16:1],,,2,{48}8,7,6h[24:5],{16},,,2h[16:1],,,2,
{16}6h[16:13]/3b,,3,,2,2,,1,,1,,1,,2h[16:3],,,
{16}6h[4:1],,1,,2,2h[8:1],,,5h[4:1],,1,,2,2h[8:1],,,
{16}4h[16:13]/8b,{16},8,,1,1,,2,,3,,5,,5h[16:3],,,
{16}2-8[16:1],,5h[16:2]/2h[8:1],,,5h[16:3],,,1h[4:1],{16},,,{32}5,4,3,2,1,8,7,6,
{48}5b/1b-5[16:1],2,3h[24:5],{16},,,1,,,6h[16:5],,,7,,3h[4:1],,,,
{48}8-4[16:1],7,6h[24:5],{16},,,8,,,,{48}1-5[16:1],2,3h[24:5],{16},,,1,,,,
{48}1bV74[8:1]/5bV38[8:1],26,3h[12:1]/7h[12:1],{16},,,15,,,1h[16:3]/5,,,5h[16:2],,1h[4:1],,,,
{48}8,7,6-2[12:1],{16},,,6h[4:1],,,,{48}1,2,3-7[12:1],{16},,,3h[4:1],,,,
{16}8-2[8:1],8h[8:1],,,8-6[8:1],8h[8:1],,,8-3[8:1],8h[8:1],,,8-5[8:1],8h[8:1],,,
{16}1-3[8:1],1h[8:1],,,1-7[8:1],1h[8:1],,,1-5[8:1],1h[8:1],,,1w5[8:1],1h[8:1],,,
{2}1bqq6[55#32:3]*pp4[55#32:3],1b,{64}1b,28,37,46,{16}5h[16:7],{16},,,,,,{2},
{16}3h[8:1]/7h[8:1],,,,46,7,7,7,46,3,3,3,4h[16:1]/6h[16:1],,37,,
{16}2h[8:1]/6h[8:1],,,,1V74[8:1]/7V14[8:1],8,8,8qq5[16:3]*pp3[16:3],,,,,,,,,
{16}2h[8:1]/6h[8:1],,,,53,2,1,2,53,6,7,6,3h[16:1]/5h[16:1],,26,,
{16}3h[8:1]/7h[8:1],,,,2s6[8:1]/8z4[8:1],1h,1h,1>1[16:3]*<1[16:3],,,,,,,,,
{16}2h[8:1]/8h[8:1],,,,37,2,1,8,37,8,1,2,3s7[8:1]/7s3[8:1],,3h[8:1]/7h[8:1],,
{16},,,,4v1[8:1]/8v5[8:1],4h[16:1]/8h[16:1],,,48,,,,15,,26,,
{16}3-6[16:1]/7,26,15,8h[16:3]/4,,,,,5-2[16:1]/1,26,37,4/8h[16:3],,,,,
{48}1,2,3h[6:1],,,,,,,8,7,6h[6:1],,,,,,,2,3,4h[12:1],,,,7,6,5h[3:1],{16},1b,1b,,,,,
{16}7/8-4[16:1],,1-3[16:1],2,8,,1,,2/1-5[16:1],,8-6[16:1],7,1,,8,,
{16}7/8-4[16:1],,1-3[16:1],2,8,,1,,2/1-5[16:1],,8-6[16:1],7,1,,8,,
{16}7/8-3[16:1],,1-4[16:1],2,8,,1,,3/1-6[16:1],,8-5[16:1],7,1,,8,,
{16}7/8-3[16:1],,1-4[16:1],2,8,,1,,3/1-6[16:1],,8-5[16:1],7,1,,8,,
{16}1b-5[8:5],,7h[16:1],,2h[16:1],,,3,,6,,4,,,,,
{16}8b-4[8:5],,2h[16:1],,7h[16:1],,1h[16:1],,8,7,6,5,8v2[16:1]*v6[16:1],1,2,3,
{16}8b-3[16:1]*-5[16:1],,,,8b,,,,4b/8b,37,26,15,{32}8bw4[16:1]/4b,1,2,3,4,5,6,7,
{1}8b,
{1}6h[1:1]/3V15[2:3],
{1},
{1}3h[1:1]/5q2[2:3],
{1},
{1}7h[2:1]/1pp4[2:3],
{1}1-5[2:1],
{1}7-2[2:1]/1q5[2:1],
{1}1v6[2:1]/1v4[2:1],
{16}6<6[2:3]/5,,4,3,,2,3,,3h[4:1],,,,,,,,
{4}1h[4:1],,2h[4:1],,
{16}3>3[2:3]/4,,5,6,,7,6,,6h[4:1],,,,,,,,
{4}8h[4:1],,7h[4:1],,
{16}3h[8:1]/5,,6,6,3h[8:1],6,6,,3h[8:1]/7h[4:1],,,,3h[8:1],,,,
{16}2h[8:1],,,,2h[8:1],,,,1h[8:1],,,,1h[8:1],,,,
{16}1h[8:1],,8,,2h[8:1],,7,,3h[16:1],6,4h[16:1],5,3h[16:1],6,2h[16:1],7,
{32}1,2,3,4,5,6,7,8,1-5[16:1]/5,4,3,2,1,8,7,6,{2}5b<5[16:3]*>5[16:3]/1b,
{16}3b/7b,,,,,2-7[16:1],7-2[16:1],2V48[8:1],,2,,,,,1h/7h,,
{16}8,6-1[16:1],1<6[16:1],6>3[16:1],,6,,,2,1,,1h[16:3],4z8[8:1]*s8[8:1],,4,,
{16}4,,,,1s5[8:1]/7z3[8:1],,3>4[4:1]/5<4[4:1],,17,,,,,,,,
{16}1/7-4[16:1],7,7,7,7/1-3[16:1],1-7[16:1],1-4[16:1],1-6[16:1],1-5[16:1],,,,1bw5[8:1],,,,
{16},,,,1pp5[4:1]/5pp1[4:1],26,26,26,5>1[8:1]/1<5[8:1],,,,,,,,
{32}1-5[8:1]/5,26,37,48,1/5-1[8:1],6,7,8,{4}1p6[4:1]*q4[4:1],,,
{16}84,7>2[16:1]/3,62,5h[8:1]/1,,,,,15,2<7[16:1]/6,37,4h[8:1]/8,,,,,
{16}37,37,26,26,{32}1-5[8:1]/5-1[8:1],8,7,6,1V37[8:1]/5V73[8:1],48,37,26,{16}15,,,,,,,,
{16}1-5[8:1],,5-7[16:1]*-3[16:1],5,,,,,8-4[8:1],,4v2[16:1]*v6[16:1],4,,,,,
{16}1V35[8:1]*V75[8:1],,5-1[16:1],5,,,,,8<4[8:1]*>4[8:1],,4z8[16:1]*s8[16:1],4,,,,,
{16}1q3[16:3]*p7[16:3],,28,28,,,,,8pp3[16:3]*qq5[16:3],,35,35,,,,,
{16}1-6[8:1]*-4[8:1],,6-4[16:1]/4-6[16:1],64,,,,,8>3[8:1]*<5[8:1],,3v2[16:1]/5v6[16:1],,,,,,
{16}1b-5[8:5],,1h[16:1],,,2-4[16:1],,8-6[16:1],,2,,8,,1,,,
{16}8b-4[8:5],,8h[16:1],,,1-6[16:1],,7-2[16:1],,1,,7,,8,,,
{64}8b,71,62,53,{16}4h[16:3],,,,,,,37,37,26,26,{32}1,2,3,4,5,6,7,8,
{64}1b,28,37,46,{16}5h[16:7],,,{4},,,
E
&inote_6=(110)
{1}1bq4[4:2]/5h[4:3],
{4}8q6[4:1]/3h[8:1],6q4[4:1],3h[4:1],,
{1}8bqq5[4:2]/4h[4:3],
{4}1V73[4:1]/6h[8:1],3V51[4:1],6h[4:1],,
{16}8b-4[16:1],,2,,8,2<8[16:1],,7<5[16:1],,2>4[16:1],,7,,2,,,
{16}1b<6[8:1],,6>3[8:1],,1,5h[8:1],,,8b>3[8:1],,3<6[8:1],,8,4h[8:1],,,
{16}1b-4[16:1],,7,,1,7-3[16:1],,2-6[16:1],,7-4[16:1],,2,,7,,,
{16}8b-4[16:1],,3-6[16:1],,8,3h[8:1],,,1b-5[16:1],,6-3[16:1],,1,6h[8:1],,,
{16}8bqq5[8:5],,,,3h[16:3],,,,,,5-1[8:1],,4h[8:1],,,,
{8}2b-4[8:1],1,8-4[8:1]/2,,8/7b-5[8:1],6,1-5[8:1]/7,,
{16}1bqq6[8:5],,,,7h[16:3],,,,,,6-2[8:1],,5h[8:1],,,,
{8}8b-5[8:1],1,2-7[8:1]/8,,2/1b-4[8:1],8,7-2[8:1]/1,,
{16}5-1[8:1],5h[16:3],,,4-8[8:1],4h[16:3],,,3-7[8:1],3h[16:3],,,2-6[8:1],2h[16:3],,,
{16}1-5[8:1],1h[16:3],,,8-4[8:1],8h[16:3],,,7-3[8:1],7h[16:3],,,6-2[8:1],6h[16:3],,,
{4}8b-4[8:1],,7h[8:3]/2b-4[8:1],,1bz5[8:1]/8b-4[8:1],1V36[8:1]/8V63[8:1],1-5[8:1]/8-4[8:1],,
{16}8-4[16:1]/4,,26,,8,1-3[16:1],7-5[16:1],1-5[16:1],,1,7,1,8>4[8:1],,4V68[8:1],,
{16}8-4[8:1],,,,,1-6[16:1],1,1-4[16:1],5h[8:3],1,,1,,,,,
{16}7-3[16:1]/3,,15,,7,2-8[16:1],4-8[16:1],2-6[16:1],,2,4,2,7>3[8:1],,3-7[8:1],,
{16}7<3[8:1],,,,,8-5[16:1],1-4[16:1],2-6[16:1],,8,1-7[16:1],2,,,1,,
{16}2V41[8:1]/6,,48,,2,6-8[16:1],6-4[16:1],6-2[16:1],,,,,3s7[8:1],,7z3[8:1],,
{16}3>3[16:3],,,,,,,,7V51[8:1],7,1-3[16:1],1,2h[16:3],,,,
{16}5-2[16:1],2-5[16:1],5-8[16:1],3h[16:3],,,,,3-7[16:1],7-3[16:1],3V15[8:1],6h[16:3],,,,,
{16}8h[8:1],4,4,7h[8:1],3,3,6h[16:1],2-7[16:1],5h[4:1],1,1b-4[16:1],2b,,,,,
{16}3-8[8:1],,8-3[8:1],7,36,,,,6-1[8:1],,1-6[8:1],2,63,,,,
{16}2-5[8:1],,5-2[8:1],6,27,,,,7-4[8:1],,4-7[8:1],3,72,,,,
{16}3q8[8:1],,8>3[8:1],7,36,,,,6p1[8:1],,1<6[8:1],2,63,,,,
{16}2p5[8:1],,5>2[8:1],6,27,,,,7q4[8:1],,4<7[8:1],3,72,,,,
{16}1b,,2,2-4[16:1],8,8-6[16:1],,2w6[16:1],,8,,2,,,,,
{16}8b,,1,1-3[16:1],,7-5[16:1],,1,,7,1-5[16:1],2,3-7[16:1],,1,,
{4}3bV17[32:3]*V57[32:3],3bw7[16:1],3bqq7[16:3]*pp7[16:3],3b>3[4:3]*<3[4:3],
{1}3b,
{1}6v4[2:1]*V84[2:1],
{1}8-5[2:1]*z4[2:1],
{1}1-5[2:1]/2v4[2:1],
{1}5V73[2:1]/1V37[2:1],
{1}1-5[2:1]/5-1[2:1],
{1}2<3[2:1]/3h[2:1],
{1}5-8[2:1]/5q4[2:1],
{1}8-2[2:1]/1-5[2:1],
{16}7h[16:3],,1-5[8:1],2h[16:3],,8,1,,2-4[8:1],,,,2/8-2[8:1],,,,
{4}8/6-8[8:1],6/4-6[8:1],4/2-4[8:1],2/8,
{16}2h[16:3],,8-4[8:1],7h[16:3],,1,8,,7<5[8:1],,,,7/1<7[8:1],,,,
{4}1/3>1[8:1],3/5>3[8:1],5/7<5[8:1],7/1<7[8:1],
{16}1>3[8:1],,5,5,1-7[8:1],5,5,,1-3[8:1]/5-7[8:1],,,,1-6[8:1]/5-2[8:1],,,,
{4}1-5[8:1]/5-1[8:1],1<6[8:1]/5>2[8:1],1q5[8:1]/5q1[8:1],1/5,
{8}1-4[16:1],1-6[16:1],1,1,{16}1-3[16:1],8-6[16:1],1-5[16:1],8-4[16:1],1,8,1,8,
{32}1,2,3,4,15,8,7,6,15,2,3,4,1/5>5[4:1],8,7,6,{8}1<1[4:1]/5,,5,1,
{16}5b,,,,,2-4[16:1],1-5[16:1],8-6[16:1],,2,1,8,4h[8:1],,2h[8:1],,
{16}7,1-5[16:1],8-6[16:1],2-4[16:1],,1,8,2,1,1,,1h[16:3],2-6[16:1],,3,3,
{16}2,,,,8-2[8:1]*-6[8:1],,2V41[4:1]/6V47[4:1],26,8,,,,,,,,
{16}8,8,8,8,1-4[16:1],1,1-6[16:1],1,1-5[16:1],8,1,2,1w5[8:1],,,,
{16},,,,6V82[8:1]/2V46[8:1],62,6-2[8:1]/2-6[8:1],62,62,,,,,,,,
{32}1p5[8:1],2,3,4,5p1[8:1],6,7,8,{16}1pp5[4:1]*qq5[4:1],,,,,,,,,,,,
{16}2-8[16:1],8V64[8:1],8,2h[16:3],,,,,6-4[16:1],4V28[16:1],4,6h[16:3],,,,,
{16}4,4,4,4,{32}4-1[16:1],3,2,1,8-4[16:1],7,6-2[16:1],5,{16}4b,,8b,6b,,,,,
{16}1>5[8:1],,5-8[16:1],5,,,,,6q2[8:1],,2-6[16:1],2,,,,,
{16}3V17[8:1],,7-2[16:1],7,,,,,8p3[8:1],,3-6[16:1],3,,,,,
{16}1>8[16:3],,5-8[16:1],5,,,,,5V71[16:3],,7>1[16:1],7,,,,,
{16}2<4[16:3],,6-4[16:1],6,,,,,7>3[8:1],,3p7[16:1],,,,,,
{16}1b,,7,7-5[16:1],,3-1[16:1],,7-1[16:1],,3-5[16:1],,7,,3,,,
{16}8b,,1,1-5[16:1],,7,,1,,8-4[16:1],1-3[16:1],7-5[16:1],2-6[16:1],8,1,7,
{16}2b,,,,,,,,1<1[8:1]/5,1/5>5[8:1],15,15,1-5[16:1],,,,
{16}1b,,,,,,,,,3V15[8:1]/6V84[8:1],,,,3<3[16:7]/6,
&inote_7=(110)
{1}
{16}
1-4[16:1]/8,,3,,8-5[16:1]/1,,6,,1/8,1,,4,,,3/5,,
{8}6-3[16:1],5,2-7[16:1]/6,1,
6-3[16:1]/2,5,2-7[16:1]/6,1,
{16}
8-5[16:1]/2,,6,,1-4[16:1]/8,,3,,1/8,8,,4/5,,,4/6,,
{8}
3-6[16:1],4,7-2[16:1]/3,8,
3-6[16:1]/7,4,7-2[16:1]/3,8,
{8}
78,1,12,3,{16}7-3[8:1]/8,78,,6/7h[16:3],{8},,
{16}1/2-6[8:1],12,,2h[16:3]/3,{8},,{16}8/7-3[8:1],87,,7h[16:3]/6,{8},,
{16}7,7,3,3,5,5,1,1,2-5[16:1]/8-5[16:1],5-2[16:1]*-8[16:1],,1,,,,,
1-4[16:1]/7-4[16:1],4-1[16:1]*-7[16:1],,8,,,,,3^5[16:1]/7^5[16:1],5>1[16:1]*<1[16:1],,1,,,,,
{16}4/7,,3/6,,5<4[8:3]/2,,1/4,,,,,,,,8,,
1-4[8:1],,1,,8-5[8:1]/1,,8,,
1-4[8:1]/8,,1,,5/1,,5,,
{16}5/2,,6/3,,4>5[8:3]/7,,8/5,,,,,,,,1,,
8-5[8:1],,8,,1-4[8:1]/8,,1,,
8-5[8:1]/1,,8,,4/8,,4,,
7/1-4[16:1],1h[8:1],,,8-5[16:1],8h[8:1],,,1^4[16:1],1h[8:1],,,8^5[16:1],8h[8:1],,,
4-1[16:1],4h[8:1],,,5-8[16:1],5h[8:1],,,4^1[16:1],4h[8:1],,,5^8[16:1],5h[8:1],,,
{48}
1,2,3h[3:1],,,,,,,,,,,,,,,,,,,,,,1/8,7,6h[3:1],,,,,,,,,,,,,,,,,,,,,,1/8,2/7,3h[24:11]/6h[24:17],,,,,,,,,,,,,,,,,,,,,,{16}
,,,,,,,,
{16}21,,8-3[16:1],1,7,,87,,4,,1-6[16:1],8,2,,21,,
5,,8-3[16:1],1,7,,87,,4,,1-6[16:1],8,2,,21,,
5,,8-4[16:1],1,7,,86,,5,,1-5[16:1],8,2,,31,,
4,,8-4[16:1],1,7,,86,,5,,1-5[16:1],8,2,,31,,
4,,5-2[16:1],4,6,,56,,1,,4-7[16:1],5,3,,34,,
8,,5-2[16:1],4,6,,56,,1,,4-7[16:1],5,3,,34,,
8,,5-1[16:1],4,6,,57,,8,,4-8[16:1],5,3,,24,,
{48}
1,2,3h[48:7],,,,,,,8,7,6h[48:7],,,,,,,
2,3,4h[48:9],,,,7,6,5h[48:7],,,,,,,,,,{16}1-3[8:1]/8,,1/8,,{16}
{16}
1-5[8:1],4,4,4,1-3[8:1],7,7,7,1-5[8:1],4,4,4,1-3[8:1],6,6,6,
1-5[8:1],4,4,4,1-3[8:1],8,8,8,1-5[8:1],5,6,7,8-6[8:1]/1,,8,,
8-4[8:1],5,5,5,8-6[8:1],2,2,2,8-4[8:1],5,5,5,8-6[8:1],3,3,3,
8-4[8:1],5,5,5,8-6[8:1],1,1,1,8-4[8:1],3,2,1,
{8}2b-4[8:1]/8b,2,{16}
2-6[8:1],5,5,5,2-4[8:1],7,8,7,2-6[8:1],5,5,5,2-4[8:1],8,1,8,
2-6[8:1],5,5,5,2-4[8:1],7,8,7,2-6[8:1],6,7,8,7-5[8:1]/2,,7,,
7-3[8:1],4,4,4,7-5[8:1],2,1,2,7-3[8:1],4,4,4,7w3[8:1],1,8,1,
{1},
{16}
4h[16:3],,,3h[16:3],,,6h[16:3],,,5h[16:3],,,7h[4:1],,8,,
5h[16:3],,,6h[16:3],,,3h[16:3],,,4h[16:3],,,2h[4:1],,1,,
4h[16:3],,,3h[16:3],,,5h[16:3],,,6h[16:3],,,7h[4:1],,8,,
5h[16:3],,,6h[16:3],,,4h[16:3],,,3h[16:3],,,2h[8:1],,1,,
{16}1h[16:3]/8,,,5h[16:3],,,8h[16:3],,,4h[16:3],,,7h[4:1],,6,,
3h[16:3],,,6h[16:3],,,2h[16:3],,,5h[16:3],,,1h[4:1],,2,,
5h[16:3],,,2h[16:3],,,6h[16:3],,,3h[16:3],,,7h[4:1],,8,,
2h[16:3],,,6h[16:3],,,3h[16:3],,,5h[16:3],,,4,,45,,
{16}4h[16:3]/5,,,8h[16:3],,,5h[16:3],,,1h[16:3],,,6h[4:1],,7,,
2h[16:3],,,7h[16:3],,,3h[16:3],,,8h[16:3],,,4h[4:1],,3,,
8h[16:3],,,3h[16:3],,,7h[16:3],,,2h[16:3],,,6h[4:1],,5,,
3h[16:3],,,7h[16:3],,,2h[16:3],,,8h[16:3],,,1,,18,,
{8}7h[4:1],8,2h[4:1],1,6h[4:1],8,3h[4:1],1-5[16:1],6,8p4[16:1],2,
3-8[16:1],5,6^1[16:1],3,2v5[16:1],8,7v4[16:1]/2,3,
27,
{16}26,26,37,37,48,48,15,15,
{32}48,7,6,5,4,3,2,1,48,5,6,7,8,1,2,3,{8}4bw8[8:1]/8b,
,,,
{16}1-5[8:4],,,,,6,6,8,,4,4,2,8-4[8:4],,,,,3,3,1,,5,5,7,6,6^3[16:1],3^8[16:1],3,,,,,
2^7[16:1],,,,2^5[16:1]/6,,,,2^7[16:1]/6,,,,2/7^4[16:1],,,,3/7^2[16:1],,,,3/7^4[16:1],,,,3/7^2[16:1],,,,37,,,,
2/7-4[16:1],,8,8,2-5[16:1]/7,,1,1,2/7-4[16:1],,8,8,2-5[16:1]/7,,1,1,2/7-3[16:1],,8,8,1-5[16:1]/7,,8,8,1/7-3[16:1],,8,8,1/7,,8,8,17
{16}2^5[16:1]/7,8,1,2h[16:3],,,,,2/7^4[16:1],1,8,7h[16:3],,,,,
2/7-4[16:1],8,8,2-5[16:1]/7,1,1,2/7-4[16:1],8,8,2-5[16:1]/7,1,1,27,,6b,,
3^1[16:1],3,4,5,6^4[16:1],6,7,8,1^7[16:1],1,2,3,4,4,5,5,
6^8[16:1],6,5,4,3^5[16:1],3,2,1,8^2[16:1],8,7,6,5,5,4,4,
1-3[16:1]/7-5[16:1],8,8w4[16:1],8,1/7,,8,,1w5[16:1],1,2/8,,1,,,,
2-4[16:1]/8-6[16:1],1,1w5[16:1],1,2/8,,1,,8w4[16:1],8,1/7,,8,,,,
1-6[16:1]/7-2[16:1],8,8w4[16:1],8,1/7,,8,,1w5[16:1],2/8,3/7,,1,,,,
2-7[16:1]/8-3[16:1],1,1w5[16:1],1,2/8,,1,,1-5[8:1],3/7,5w1[8:1],,{4}1,,,
{16}37,37,84,84,
{32}37,6,5,4,3,2,1,8,7b/3b,
E
