&title=YOUNITHM
&artist=大国奏音
&first=0
&des=no YOU no CHUNITHM
&des_1=no YOU no CHUNITHM
&des_2=no YOU no CHUNITHM
&des_3=no YOU no CHUNITHM
&des_4=no YOU no CHUNITHM
&lv_5=14+
&des_5=no YOU no CHUNITHM
&inote_5=(260){1},
,7v4v1[4:9]/3,,,
{2}E3,E7,4<4[4:7]/5,,,,8p1[1:1],,,,
{4}D7,E8,D1,E6,C,E2,D5,E4,D3,D6,C,D2,
6,5,4,3,
7>2[4:3],,,4q5[1:1],,,D1,,
8qq1[8:11],,,2>6b[8:5],,,,,Cf,,
4/6h[2:1],,5h[2:1],,8h[2:1],,
1V38[2:1],,5,6p4[8:5],,1,,3,2>5[8:3]/4,,
8,,6,5,7/4,,
8h[4:1],3h[4:1],4h[4:1],1pp4[1:1],,5,5<8[4:1],,,,
7/3h[2:1],,6,6,57,,4/8<5[8:3],,2,1V37[2:1],,5,,6,
78,{8}6,5,7,,{4}4,12,{8}3,4,2,,{4}15,
{8}7,7,8,8,5,5,3,3,
{16}6,7,8,1,2,3,4,5,6,7,8,1,2-8-6-4-2-8-6-4[2:7],3,4,5,
{1}6,,,,
{2}7hbx[4:1]/E1f,7hx[4:1]/C,7hx[4:1]/E5,
7hx[4:1]/E4,7hx[4:1]/E3,7hx[4:1]/E2,
{16}2,3,4,5,6,7,8,1,2,3,4,5,6,7,8,1,{4}24,
5b/6b,4>1[8:1]/7,6,5-7[8:1],5-3[8:1],5-1[8:1],5,
2h[4:1],8,{8}3-8[8:1],3,5,,6h[4:1],,1,,5-8[8:1],5,4,,
2,,57,,48,4/8w4[8:1],,8,,,2-6-4[8:3],,6,,7,,
{16}8,,3,4,3,,7,,3,4,3,,6,,3,4,3,,
5,,2,3,4,,6,5,4,3,2,1,8,7,62,,,,
{4}57,3/8<5[8:1],2,1>4[8:1],1<6[8:1],1-5[8:1],1,
8h[4:1],3h[4:1],{16}5,6,7,8,2,3,4,5,
{4}1bV35b[4:1]*V75b[4:1],,,28,
{16}6,5,6,5,6,,,,3,4,3,4,3,,,,7,5,7,5,6,,,,2,4,2,4,3,,,,
{8}8,8,4,4,5,5,2,2,
6h[8:1],{24}1b,2,3h[6:1],,,,
7b,6,5h[6:1],,,,2b,3,4h[6:1],,,,8b,7,6,,,,
{8},2,2,4,4,1h[4:1],,6<1[8:1],,{16}2,3,4,5,,,,,
{8}8h[4:1],,5,5,7,7,2,2,4,4,1-5[8:1],1,6-8[8:1],6,4w8[8:1],,,,
2h[4:1],,{16}8,7,6,5,1h[4:1],,,,7,6,5,4,
{8}8>3[8:1],,4,4<7[8:1],,2,2h[4:1],,
1<6[8:1],,4,4>1[8:1],,6,,5,5pp8[2:1]*qq2[2:1],,,,,,,,
3,4,2,4,3,4,1,4,3,3,4,4,2,2,5,5,
4,7,5,6,5,8,5,6,4,4,5,5,2,2,4,4,
{16}1b,2,3,4,5,,8b,7,6,5,4,,2b,3,4,5,6,7,8,1,
5,,5,,3,4,3,4,2,4,2,4,
{8}1q5[8:1],,16,7-3[8:1],,37,,,
{16}1,2,3,4,8,7,6,5,2,3,4,5,8,7,6,5,
{8}3bx,3bx-8[8:1],,3bx/7bx-4[8:1],,7bx,,
1bx/5bx,{1}1bx-7-4-6-2b[2:1]/5bx,
{8}7bx,7bx-4[8:1],,3bx-8[8:1]/7bx,,3bx,,
2bx/5bx,{1}2bx/5bx-7-3-6-1b[2:1],
{8}2bx,2bx>5b[8:1],,2bx/8bx-4[8:1],,8bx,,2bx,
1bx,1bx-5b[8:1],,1bx/7bx<4[8:1],,7bx,,3bx,
{6}5,5,5,{4}4/6,,
{6}18,18,18,{4}7b/2b,,
{6}5x/7x,6,5,2x/4x,3,4,
5x/6x,7,5x/6x,4,3x/5x,2,
1b-5[8:1],5,6,7b-4[8:1],4,3,2b-5b[8:1]*-6b[8:1],,,{4}C,,
{6}4/7<4[8:1],,1,1,5,3,
4/8p4[8:1],,2,2,5,3,
{16}6,5,4,3,2,1,8,7,2,3,4,5,8,7,6,5,
3,4,3,4,3,4,3,4,3,4,3,4,3,4,3,4,
{1}3-1<8-6-4v5-3[1:4],,,,
{2},E1,C,E5,E4/E6,{4}E3,E7,,C,,A4,A5,,
{2}3h[2:1],4h[2:1],5h[2:1],6h[2:1],{4}4,4,,
5,,2,
{1}4h[1:1],1h[1:1],6h[1:1],5h[1:1],
7>7b[4:9],,,{4}E1,
{8}7,7,5,6,4,5,{1}2bx/B7/B6/E7f,
7bx/B2/B3/E3f,
{2}3bx/B5/B6/E6f,8bx/B3/B4/E4f,
{8}3,5,3,5,{16}1,2,3,4,8,7,6,5,
{8}2b-4[8:1],2,6,6,1-5[8:1],1,8,,
7-5[8:1],7,3,3,8-4[8:1],8,1,,
3b/5b,,1b/7b,2b-5[8:1]/6b-1[8:1],,2b/6b,,
4b/8b,4b/8b<4[16:3],,2,,8>4[16:3],,6,,
7-5[8:1],,57,,3-8[8:1],4,3,5,
5-2[8:1],,56,,{16}8>3[8:1],7,6,5,8,,,,
{8}7-5[8:1],8-4[8:1],7,8,1-5[8:1],2-4[8:1],1,2,
6pp5[16:5],,46,,1>4[8:1],,1/7,,
6-1[8:1],5,6,4,{16}8,2,8,2,8,,,,
{8}3-8[8:1],4,3,5,{16}1,7,1,7,1,,,,
{8}5,5,3,3,4,4,1,1,
{16}7b,6,5,4,1b,2,3,4,8b,7,6,5,2b,3,4,5,
{4}1-5[8:1],3-1[8:1],3x<7[4:1],,
8-4[8:1],6-8[8:1],6x>2[4:1],,
8-4[8:1],3-1[8:1],3x<8b[4:1],,
1-5[8:1],6-8[8:1],6x>1b[4:1],,
{8}7,7,1,6,3,3,4,2,
{16}7,6,5,4,8,7,6,5,1,8,7,6,2,1,8,7,
{8}5,5,4,6,2,2,4,4,
{16}1,2,3,4,8,1,2,3,7,8,1,2,6,7,8,1,
3,4,3,4,3,4,3,4,2-5b[8:1]*q6b[8:1],,,,,,,,
7,4,7,4,7,4,7,4,8v5b[8:1]*p4b[8:1],,,,,,,,
2,3,4,5,6,7,8,1,26,5,4,3,2,1,8,7,
62,3,4,5,8,7,6,5,{32}1,2,3,4,5,6,7,8,{4}1/Cf,
8<5[8:1],28,8>3[8:1],68,7V53b[4:1],3V17b[4:1],7,3,
2-5[4:1],5V38[4:1],8-4[4:1],6,
7-5[8:1],1-3[8:1],8-4[8:1],48,
{16}3,,3,,5,,5,,2,3,4,5,8,7,6,5,
2,,2,,6,,6,,1,2,3,4,7,6,5,4,
{4}2-5[4:1],5-8[4:1],8-3[4:1],3,
7<4b[4:1],4>1b[4:1],1<6b[4:1],6,
4>1[8:1],46,4<7[8:1],24,
3-1<7b[4:1],7-5>3b[4:1],3,7,
5-1[4:1],1V73[4:1],3-6[8:1],2,
1-5[8:1],7-4[8:1],3-6[8:1]*-8[8:1],3,
{8}7,7,5,5,8,8,2,2,
4,4,3,3,7,7,1,1,
6,6,57,57,4,4,35,35,
{16}2,3,4,5,8,7,6,5,{32}1,2,3,4,5,6,7,8,{4}1,
{8}2-5[8:1]/7-4[8:1],27,2-8[8:1]/7,,2/6-4[8:1],,36,,
1>4[8:1],,1<6[8:1]/7,,1,,3-7[8:1]/5,4,
3/5-1[8:1],,2-6[8:1]/5,,2/8w4[8:1],,8,,
6-3[8:1],,2-7[8:1]/6,,25,,
6,6,7-5[8:1]/8-4[8:1],,78,,
1-5[8:1]/2-4[8:1],,12,,
1-4[8:1]/8-5[8:1],,18,,36,,
27,7,1-5[8:1],1,7-4[8:1],7,2-6[8:1],2,5-1[8:1],5,
3-8[8:1],3,7,7,{16}1,2,3,4,8,7,6,5,
2b,4,3,4,2,,7b,5,6,5,7,,
2b,1,3,1,2,,7b,8,6,8,7,,
2,,2,,24,,2,,
6b,5,7,5,6,,3b,4,2,4,3,,
7b,8,6,8,7,,2b,1,3,1,2,,
48,,48,,37,,37,,2b,3,4,5,6,7,8,1,2,3,4,5,6,7,8,1,
{24}6b,5,4,3,2,1,8,7,6,5,4,3,2,1,8,7,6,5,4,3,2,1,8,7,
{16}4b,6,4,6,4,6,4,6,3,5,3,5,3,5,3,5,2b,1,2,1,2,1,2,1,
{32}2b,3,4,5,6,7,8,1,2,3,4,5,6,7,8,1,
{1}2-6[4:15],,,,
7v4v1b[4:15],,,,
{4}D5,E6,D7,E4,C,E8,D3,E2,D1,D4,C,D8,Ch[2:1],,,,
6,5,4,6,5,4,3,2,1,8,7,6h[2:1],,2,3,4,5bxp4b[4:15],
E
&des_6=no YOU no CHUNITHM
&des_7=no YOU no CHUNITHM
