&title=fairy stage
&artist=K2 SOUND
&first=0.02
&des=Ylng
&lv_5=13
&inote_5=(128){1},
{4}3h[4:4],4,4,4,5h[4:4],4,4,4,2h[4:4],4,4,4,
{8}7-1v8-2[8:3],,,E5/D5,,,,,
{4}5/6h[4:3],3,1,7,4/5h[4:3],2,8,6,3/4h[4:3],1,7,5,
{8}3>1qq7<4[8:4]/2,E4,,C,,E8f,,,
{16}3/4,,5,4,,6,5,,7-4[8:1],,,,3/7,,,,2/4,,5,4,,6,5,,7-4[8:1],,,,7/1,,,,3/4,,6,4,,7,5,,8>3[8:1],,,,2/8,,,,1h[4:3],,E4,,,,B6,,,,E1,,,,,,
{16}6/5,,4,5,,3,4,,2-5[8:1],,,,6/2,,,,7/5,,4,5,,3,4,,2-5[8:1],,,,2/8,,,,6/5,,3,5,,2,4,,1<6[8:1],,,,7/1,,,,8h[8:5],,E6,,,,B3,,,,E1f,,,,,,
{8}4q5[8:3],,3,,3,,3,6,5p4[8:3],,7,,7,,7,3,4q5[8:3],,1,,1,,1,6,5h[8:3],E7,,E1,,E5,,4,
{8}5pp4[8:3],,3,,3,,3,5,4qq5[8:3],,7,,7,,7,4,5pp4[8:3],,1,,1,,1,5,5qq6[8:4]/6<4[8:3],,
{4},,
{8},
{8}7,4-6[12:1],,2-6[8:1],,8h[8:3],,,5,
{16}3h[4:1]/4V62[4:1],,,,,,,,5h[4:1],,,,,,
{8}8,4-8[8:1],,2-5[8:1],,7h[8:3],,,5,3s7[8:3]*V15[8:3],,,,,,,
{8}2,5-3[12:1],,7-3[8:1],,1h[8:3],,,4,
{16}6h[4:1]/5-3v8[8:2],,,,,,,,4h[4:1],,,,,,
{8}1,5-1[8:1],,7-4[8:1],,2h[8:3],,,4,
{16}6x/5x,,,8x,,,5x,,4x/3x,,,1x,
{32}E4,E5,E6,E7,E8,E1,E2,E3,
{16}4x/6x,,7,5,,4,5,,5/6,,7,5,,4,5,,5/6,,4,5,,3,4,,5/6,,4,5,,2,4,,5/3,,5,4,,7,5,,4/3,,5,4,,6,5,,4/3,,2,4,,5,4,,4/3,,2,4,,5,4,,
{16}7/8,,6,8,,1,8,,7/8,,6,8,,1,8,,2/1,,3,1,,8,1,,2/1,,3,1,,8,1,,6/8,,7,5,,4,5,,1/3,,2,4,,5,4,,
{16}5x/6x,,,3x/4x,,,1x/8x,,
{16}E8,E7,E6,E5,
{24}D2,D1,D8,D7,D6,D5,
{16}2x/8x,,3,4,1h[16:2],,5,4,1<6[12:1],,5,,3,,1,,7/8,,6,5,8-4[12:1],,4,4,8x,,2,,8<5[12:1]/6,,,,4-7[8:1],,2,,8-4[8:1],,1,,3,,2,,,8<2[8:3]/7,,1,6h[8:6],,,,,,,,,,,,
{16}A1,A7,A5,A3,
{16}2x/8x,,6,5,8h[16:2],,4,5,8>3[8:1],,4,,6,,8,,5/6,,3,4,8>3[8:1],,5,5,8,,7,,1-6[12:1]/2,,,,4-7[8:1],,2,,1-6[8:1],,3,,4-8[8:1],,2,,,3qq5[8:3],,4,6h[8:6],,,,,,,,,,,,
{16}D1,D3,D5,D7,
{16}1x/8x,,3,4,1v6[12:1],,5,4,1>2-4[12:1],,5,,1,,6,,2-4[12:1],8,3,4,2-8v5[6:1],,6,6,2,,4,,7-3[12:1],,,,4-1[12:1],,5,,8>3[8:1],,6,,5p1[8:1],,7,,,6pp3[16:7],,5,2h[8:6],,,,,,,,,,,,
{16}A8,A6,A4,A2,
{16}1x/8x,,6,5,8>1-3[12:1],,4,5,8v5[12:1],,6,,8,,3,,2/1,,5,4,8>3[12:1],,5,6,8,,7,,2/8-3[12:1],,,,8/5-2[12:1],,7,,8-3[12:1]/5,,6,,5-1[12:1]/8,,7,,,6pp3[16:7],,5,2h[8:6],,,,,,,,,,,,
{16}D1,D7,D5,D3,1hx[4:4],,,,,,,,E1,,,,,,,,8h[4:3],,,,,,,,
{16}E5,E7,E1,E3,D5,D7,D1,D3,5bx/4bx,
E
