&title=[ 避 ] You Are The Miserable
&artist=t+pazolite
&first=0
&des=Z.
&des_7=
&clock_count=4
&lv_7=[避]
&inote_7=(163)
{1},,
{1}
1!>1[5.8892##1.4723]m/8!>8[5.8892##1.4723]m/Ch[1:6]/B1m/B8m,
2!>2[4.4169##1.4723]m/7!>7[4.4169##1.4723]m/B2m/B7m,
3!<3[2.9446##1.4723]m/6!<6[2.9446##1.4723]m/B3m/B6m,
4!<4[1.4723##1.4723]m/5!<5[1.4723##1.4723]m/B4m/B5m,
,
1!>1>5[0.0001##1.4723]m/2!>2>6[0.0001##1.4723]m/3!<3<7[0.0001##1.4723]m/4!<4<8[0.0001##1.4723]m/5!<5<1[0.0001##1.4723]m/6!<6<2[0.0001##1.4723]m/7!>7>3[0.0001##1.4723]m/8!>8>4[0.0001##1.4723]m,
8!<8<8[0.0001##1.4723]m/7!<7<7[0.0001##1.4723]m/6!>6>6[0.0001##1.4723]m/5!>5>5[0.0001##1.4723]m/4!>4>4[0.0001##1.4723]m/3!>3>3[0.0001##1.4723]m/2!<2<2[0.0001##1.4723]m/1!<1<1[0.0001##1.4723]m,
{16}
1!v3[0.000001##0.000001]m`Ch[4:3],2!v4[0.000001##0.000001]m,3!v5[0.000001##0.000001]m,4!v6[0.000001##0.000001]m,
5!v7[0.000001##0.000001]m,6!v8[0.000001##0.000001]m,7!v1[0.000001##0.000001]m,8!v2[0.000001##0.000001]m,
1!v3[0.000001##0.000001]m/5!v7[0.000001##0.000001]m,2!v4[0.000001##0.000001]m/6!v8[0.000001##0.000001]m,
3!v5[0.000001##0.000001]m/7!v1[0.000001##0.000001]m,4!v6[0.000001##0.000001]m/8!v2[0.000001##0.000001]m,
{4},
{16}1m/6m`2b/5b,,3,4,3,,4/5,,6,5,6,,5,,5/6`1h[8:1]m/2h[8:1]m,,
{16}8m/3m`7b/4b,,6,5,6,4,5,3,4,3,5,,2,,4/3`1h[8:1]m/7h[8:1]m,,
{16}4b/5b`2m/8m,,6,5,6,,3,4,2,5,3,6,4,,3/5,,
{16}
4/5`5!-1[0.000001##0.000001]m,6`6!-2[0.000001##0.000001]m,
7`7!-3[0.000001##0.000001]m,8`8!-4[0.000001##0.000001]m,
1`1!-5[0.000001##0.000001]m,2`2!-6[0.000001##0.000001]m,
3`3!-7[0.000001##0.000001]m,4`4!-8[0.000001##0.000001]m,
1`1!-5[0.000001##0.000001]m,8`8!-4[0.000001##0.000001]m,
7`7!-3[0.000001##0.000001]m,6`6!-2[0.000001##0.000001]m,
5`5!-1[0.000001##0.000001]m,4`4!-8[0.000001##0.000001]m,
3`3!-7[0.000001##0.000001]m,2`2!-6[0.000001##0.000001]m,
1b/8b`1!w5[0.000001##0.000001]m/5!w1[0.000001##0.000001]m,,7,5,
6,,5`1!-4[0.0001##0.092]m,6,
5`1!-4[0.0001##0.368]m,6,4,6,
5,,7b`7!-3[0.000001##0.000001]m,,
1b`1!-5[0.000001##0.000001]m,,2,4,
3,,4`8!-5[0.0001##0.092]m,3,
4`8!-5[0.0001##0.368]m,3,5,3,
4,,2b`2!-6[0.000001##0.000001]m,,
7b`7!w3[0.000001##0.000001]m,5,6,5,6,5,
8b`8!w4[0.000001##0.000001]m,5,6,5,6,5,
{4}
1b`1!w5[0.000001##0.000001]m/1!pp4[0.368##0.7361]m*qq6[0.368##0.7361]m,{2},
{16}
1!v2[0.000001##0.000001]m,
1!v3[0.000001##0.000001]m,
1!v4[0.000001##0.000001]m,
1!-5[0.000001##0.000001]m,
1!v6[0.000001##0.000001]m,
1!v7[0.000001##0.000001]m,
1!v8[0.000001##0.000001]m,
1!w5[0.000001##0.000001]m,
{16}
5h[4:7]/6`4$m,,,,
6`3!<4[2.208##0.0001]m,,,,
6`3$m,,,,
6`2!>3[1.4723##0.0001]m,,,,
7`2$m,,,,
7`1!>2[0.7361##0.0001]m,,,,
7`1$m,,,,
{32}
8b`4!<5[0.000001##0.000001]m,5!<6[0.000001##0.000001]m,
6!<7[0.000001##0.000001]m,7!>8[0.000001##0.000001]m,
8!>1[0.000001##0.000001]m,1!>2[0.000001##0.000001]m,
2!>3[0.000001##0.000001]m,3!<4[0.000001##0.000001]m,
{16}
4h[4:7]/3`5$m,,,,
3`6!>5[2.208##0.0001]m,,,,
3`6$m,,,,
3`7!<6[1.4723##0.0001]m,,,,
2`7$m,,,,
2`8!<7[0.7361##0.0001]m,,,,
2`8$m,,,,
{32}
1b`5!>4[0.000001##0.000001]m,4!>3[0.000001##0.000001]m,
3!>2[0.000001##0.000001]m,2!<1[0.000001##0.000001]m,
1!<8[0.000001##0.000001]m,8!<7[0.000001##0.000001]m,
7!<6[0.000001##0.000001]m,6!>5[0.000001##0.000001]m,
{16}
5h[4:7]/6h[8:1]`3m/4m,,3m,4m,
6h[8:1]`3m,,3m,4m,
6h[8:1]`3m,,3m,2m,
6h[8:1]`3m,,3m,2m,
7h[8:1]`3m,,2m,1m,
7h[8:1]`2m,,2m,1m,
7h[8:1]`2m,,2m,1m,
7`2m,,,,
{1}
8qq5[2:1]/4qq1[2:1]`4!qq1[0.368##0.0001]m`8!qq5[0.368##0.0001]m,
{32}
1h[4:3]/5h[4:3]`4!<5[0.92##0.0001]m/8!>1[0.92##0.0001]m,
3!<4[0.92##0.0001]m/7!>8[0.92##0.0001]m,
2!>3[0.92##0.0001]m/6!<7[0.92##0.0001]m,
1!>2[0.92##0.0001]m/5!<6[0.92##0.0001]m,
{8},{4},{2},
{8}
2/4`1h[8:1]m,6,2/4`1h[8:1]m,6,
3/5`1h[8:1]m,7,3/5`1h[8:1]m,7,
4/6`1h[8:1]m,8,4/6`1h[8:1]m,8,
1/7,
{24}
1/7h[4:1]`7!-1[0.000001##0.000001]m,2`7!-2[0.000001##0.000001]m,
3`7!-3[0.000001##0.000001]m,
{8}
4`7!-4[0.000001##0.000001]m,
6x,
{8}
7/5`8h[8:1]m,3,7/5`8h[8:1]m,3,
6/4`8h[8:1]m,2,6/4`8h[8:1]m,2,
5/3`8h[8:1]m,1,5/3`8h[8:1]m,1,
{16}7,5,6,3,5,4,6,,
{8}
7/5`8h[8:1]m,3,7/5`8h[8:1]m,3,
6/4`8h[8:1]m,2,6/4`8h[8:1]m,2,
5/3`8h[8:1]m,1,5/3`8h[8:1]m,1,
8/2,
{24}
8/2h[4:1]`2!-8[0.000001##0.000001]m,7`2!-7[0.000001##0.000001]m,
6`2!-6[0.000001##0.000001]m,
{8}5`2!-5[0.000001##0.000001]m,3x,
{8}
2h[8:1]/4`1h[8:1]m,6,2h[8:1]/4`1h[8:1]m,6,
3h[8:1]/5`1h[8:1]m,7,3h[8:1]/5`1h[8:1]m,7,
{8}5/6h[8:1],{24}5,4,3,{8}2h[8:1],{24}8,7,6,
{8}5h[8:1],{24}1,2,3,{8}4h[8:1],7b,
{16}8$`8!>3[8:1],,3,,8$`8!<5[8:1],,4`2!-6[0.0001##0.046]m,4,
{16}8$`8!-4[8:1],,2,2,8,,3,3,
{8}7$`7!v1[8:1],1$`1!V75[8:1],7,2`6!-2[0.0001##0.046]m,3,
{24}4x,3,2,
{64}
1/5h[8:1]`1!<1[0.000001##0.000001]m,1!<2[0.000001##0.000001]m,
1!<3[0.000001##0.000001]m,1!<4[0.000001##0.000001]m,
1!<5[0.000001##0.000001]m,1!<6[0.000001##0.000001]m,
1!<7[0.000001##0.000001]m,1!<8[0.000001##0.000001]m,
{8},
{16}2>5[8:1]/4,,1,,2/8-4[8:1],,7`7!-3[0.000001##0.000001]m,,
{16}1-5[8:1]/8,,2,,1/7-3[8:1],,6,,
{8}2>5[8:1]/7,1,2/7,8`3!-7[0.000001##0.000001]m,
{16}4`8m,3`7m,2`6m,1`5m,7`3m,6`2m,5`1m,4`8m,
{16}1$`1!<6[8:1],,6,,1$`1!>4[8:1],,5`7!-3[0.0001##0.046]m,5,
{16}1$`1!-5[8:1],,7,7,1,,6,6,
{8}2$`2!v8[8:1],8$`8!V24[8:1],2,7`3!-7[0.0001##0.046]m,6,
{24}5x,6,7,
{64}
8/4h[8:1]`8!>8[0.000001##0.000001]m,8!>7[0.000001##0.000001]m,
8!>6[0.000001##0.000001]m,8!>5[0.000001##0.000001]m,
8!>4[0.000001##0.000001]m,8!>3[0.000001##0.000001]m,
8!>2[0.000001##0.000001]m,8!>1[0.000001##0.000001]m,
{8},
{8}5/7,8,2/4,1,5/6,8,3/4,1,
{16}
7`7!v6[0.001##0.0001]m,8`8!v1[0.001##0.0001]m,
6`6!v5[0.001##0.0001]m,1`1!v2[0.001##0.0001]m,
5`5!v4[0.001##0.0001]m,2`2!v3[0.001##0.0001]m,
4`4!w8[0.001##0.0001]m,3`3!w7[0.001##0.0001]m,
1`1!v8[0.001##0.0001]m,2`2!v3[0.001##0.0001]m,
8`8!v7[0.001##0.0001]m,3`3!v4[0.001##0.0001]m,
7`7!v6[0.001##0.0001]m,4`4!v5[0.001##0.0001]m,
6`6!w2[0.001##0.0001]m,5`5!w1[0.001##0.0001]m,
{1}Cf,
{2},
1!<8-2-7-3-6-4<5[0.7361##2.9446]m/8!>1-7-2-6-3-5>4[0.7361##2.9446]m,
{1},,
{16}
3h[16:3]m,,,4h[16:3]m,,,2m,,
6h[16:3]m,,,5h[16:3]m,,,7m,,
1h[16:3]m,,,2h[16:3]m,,,3m,,
{24}5h[8:1]m,,,3m,5m,4m,{4}6m,
{16}
3h[16:3],,,4h[16:3],,,2,,
6h[16:3],,,5h[16:3],,,7,,
1h[16:3],,,2h[16:3],,,3,,
5,5,3,5,4,6,5,,
{16}
7h[8:1]/5`1m/2m/3m,,,5,
7h[8:1],,5`2!qq7[0.000001##0.000001]m,,
7h[8:1]/4`7!>2[0.0001##0.184]m,,,4,
7h[8:1],,4`2!<7[0.000001##0.000001]m,,
7h[8:1]/3`7!pp2[0.0001##0.184]m,,,3,
7h[8:1],,3`7!>2[0.000001##0.000001]m*pp2[0.000001##0.000001]m,,
7h[8:1]/2,,
{32}
2`8!-3[0.000001##0.000001]m,3`8!-4[0.000001##0.000001]m,
4`8!-5[0.000001##0.000001]m,,
7`8!w4[0.000001##0.000001]m,6,
{16}5`8!w4[0.000001##0.000001]m,,,
{16}
2h[8:1]/4`2!<7[0.000001##0.000001]m*qq7[0.000001##0.000001]m,,,4,
2h[8:1],,4`7!pp2[0.000001##0.000001]m,,
2h[8:1]/5`2!<7[0.0001##0.184]m,,,5,
2h[8:1],,5`7!>2[0.000001##0.000001]m,,
2h[8:1]/6`2!qq7[0.0001##0.184]m,,,6,
2h[8:1],,6`7!>2[0.000001##0.000001]m*pp2[0.000001##0.000001]m,,
2h[8:1]/7,,
{24}
7`1!-6[0.368##0.0001]m,6`1!-5[0.306##0.0001]m,
5`1!-4[0.245##0.0001]m,
{16}4/3`1!w5[0.184##0.0001]m,,2,,
{16}
1h[8:1]/3`7!>2[0.000001##0.000001]m*pp2[0.000001##0.000001]m,,,3,
1h[8:1],,3`7!pp2[0.000001##0.000001]m,,
1h[8:1]/4`2!<7[0.0001##0.184]m,,,4,
1h[8:1],,4`7!>2[0.000001##0.000001]m,,
1h[8:1]/5`2!qq7[0.0001##0.184]m,,,5,
1h[8:1],,5`2!<7[0.000001##0.000001]m*qq7[0.000001##0.000001]m,,
1/6h[8:1]`8!-5[0.368##0.0001]m/8!-4[0.306##0.0001]m/8!-3[0.245##0.0001]m/8!-2[0.184##0.0001]m,,
{24}2,3,4,{8}5,,
{16}
8h[8:1]/6`2!<7[0.000001##0.000001]m*qq7[0.000001##0.000001]m,,,6,
8h[8:1],,6`2!qq7[0.000001##0.000001]m,,
8h[8:1]/5`7!>2[0.0001##0.184]m,,,5,
8h[8:1],,5`2!<7[0.000001##0.000001]m,,
8h[8:1]/4`7!pp2[0.0001##0.184]m,,,4,
8h[8:1],,4,,
8`5!>4[0.000001##0.000001]m,7`4!>3[0.000001##0.000001]m,
6`3!>2[0.000001##0.000001]m,5`2!<1[0.000001##0.000001]m,
1`1!<8[0.000001##0.000001]m,2`8!<7[0.000001##0.000001]m,
3`7!<6[0.000001##0.000001]m,4`6!>5[0.000001##0.000001]m,
{32}
5/6`4!>3[0.000001##0.000001]m,4!>3[0.000001##0.000001]m,4!>3[0.000001##0.000001]m,4!>3[0.000001##0.000001]m,
5`4!>3[0.000001##0.000001]m,4!>3[0.000001##0.000001]m,4!>3[0.000001##0.000001]m,4!>3[0.000001##0.000001]m,
5`4!>3[0.000001##0.000001]m,4!>3[0.000001##0.000001]m,4!>3[0.000001##0.000001]m,4!>3[0.000001##0.000001]m,
5`4!>3[0.000001##0.000001]m,4!>3[0.000001##0.000001]m,4!>3[0.000001##0.000001]m,4!>3[0.000001##0.000001]m,
6`4!>2[0.000001##0.000001]m,4!>2[0.000001##0.000001]m,4!>2[0.000001##0.000001]m,4!>2[0.000001##0.000001]m,
6`4!>2[0.000001##0.000001]m,4!>2[0.000001##0.000001]m,4!>2[0.000001##0.000001]m,4!>2[0.000001##0.000001]m,
6`4!>2[0.000001##0.000001]m,4!>2[0.000001##0.000001]m,4!>2[0.000001##0.000001]m,4!>2[0.000001##0.000001]m,
6`4!>2[0.000001##0.000001]m,4!>2[0.000001##0.000001]m,4!>2[0.000001##0.000001]m,4!>2[0.000001##0.000001]m,
7`4!>1[0.000001##0.000001]m,4!>1[0.000001##0.000001]m,4!>1[0.000001##0.000001]m,4!>1[0.000001##0.000001]m,
7`4!>1[0.000001##0.000001]m,4!>1[0.000001##0.000001]m,4!>1[0.000001##0.000001]m,4!>1[0.000001##0.000001]m,
7`4!>1[0.000001##0.000001]m,4!>1[0.000001##0.000001]m,4!>1[0.000001##0.000001]m,4!>1[0.000001##0.000001]m,
7`4!>1[0.000001##0.000001]m,4!>1[0.000001##0.000001]m,4!>1[0.000001##0.000001]m,4!>1[0.000001##0.000001]m,
8`4!>8[0.000001##0.000001]m,4!>8[0.000001##0.000001]m,4!>8[0.000001##0.000001]m,4!>8[0.000001##0.000001]m,
8`4!>8[0.000001##0.000001]m,4!>8[0.000001##0.000001]m,4!>8[0.000001##0.000001]m,4!>8[0.000001##0.000001]m,
8,,,,
8,,,,
3/4`8!<7[0.000001##0.000001]m,8!<7[0.000001##0.000001]m,8!<7[0.000001##0.000001]m,8!<7[0.000001##0.000001]m,
4`8!<7[0.000001##0.000001]m,8!<7[0.000001##0.000001]m,8!<7[0.000001##0.000001]m,8!<7[0.000001##0.000001]m,
4`8!<7[0.000001##0.000001]m,8!<7[0.000001##0.000001]m,8!<7[0.000001##0.000001]m,8!<7[0.000001##0.000001]m,
4`8!<7[0.000001##0.000001]m,8!<7[0.000001##0.000001]m,8!<7[0.000001##0.000001]m,8!<7[0.000001##0.000001]m,
3`8!<6[0.000001##0.000001]m,8!<6[0.000001##0.000001]m,8!<6[0.000001##0.000001]m,8!<6[0.000001##0.000001]m,
3`8!<6[0.000001##0.000001]m,8!<6[0.000001##0.000001]m,8!<6[0.000001##0.000001]m,8!<6[0.000001##0.000001]m,
3`8!<6[0.000001##0.000001]m,8!<6[0.000001##0.000001]m,8!<6[0.000001##0.000001]m,8!<6[0.000001##0.000001]m,
3`8!<6[0.000001##0.000001]m,8!<6[0.000001##0.000001]m,8!<6[0.000001##0.000001]m,8!<6[0.000001##0.000001]m,
2`8!<5[0.000001##0.000001]m,8!<5[0.000001##0.000001]m,8!<5[0.000001##0.000001]m,8!<5[0.000001##0.000001]m,
2`8!<5[0.000001##0.000001]m,8!<5[0.000001##0.000001]m,8!<5[0.000001##0.000001]m,8!<5[0.000001##0.000001]m,
2`8!<5[0.000001##0.000001]m,8!<5[0.000001##0.000001]m,8!<5[0.000001##0.000001]m,8!<5[0.000001##0.000001]m,
2`8!<5[0.000001##0.000001]m,8!<5[0.000001##0.000001]m,8!<5[0.000001##0.000001]m,8!<5[0.000001##0.000001]m,
1`8!<4[0.000001##0.000001]m,8!<4[0.000001##0.000001]m,8!<4[0.000001##0.000001]m,8!<4[0.000001##0.000001]m,
1`8!<4[0.000001##0.000001]m,8!<4[0.000001##0.000001]m,8!<4[0.000001##0.000001]m,8!<4[0.000001##0.000001]m,
1,,,,
1,,,,
3/4`4!V28[0.000001##0.000001]m,,,,
2,,,,
6/5`8!V64[0.000001##0.000001]m,,,,
7,,,,
3/4`4!V28[0.000001##0.000001]m,,,,
2,,,,
6/5`8!V64[0.000001##0.000001]m,,,,
7,,,,
2/4`4!>8[0.000001##0.000001]m,,,,
1,,,,
7/5`8!<4[0.000001##0.000001]m,,,,
8,,,,
2/4`4!>8[0.000001##0.000001]m,,,,
1,,,,
7/5`8!<4[0.000001##0.000001]m,,,,
8,,,,
1`4!>4[0.000001##0.000001]m,2,
3`8!V64[0.000001##0.000001]m*V24[0.000001##0.000001]m,4,
5`4!q8[0.000001##0.000001]m*p8[0.000001##0.000001]m,6,
7`8!-4[0.000001##0.000001]m,8,
1`4!>4[0.000001##0.000001]m,2,
3`8!V64[0.000001##0.000001]m*V24[0.000001##0.000001]m,4,
5`4!q8[0.000001##0.000001]m*p8[0.000001##0.000001]m,6,
7`8!-4[0.000001##0.000001]m,8,
1`4!>4[0.000001##0.000001]m,2,
3`8!V64[0.000001##0.000001]m*V24[0.000001##0.000001]m,4,
5`4!q8[0.000001##0.000001]m*p8[0.000001##0.000001]m,6,
7`8!-4[0.000001##0.000001]m,8,
1`4!>4[0.000001##0.000001]m,2,
3`8!V64[0.000001##0.000001]m*V24[0.000001##0.000001]m,4,
5`4!q8[0.000001##0.000001]m*p8[0.000001##0.000001]m,6,
7`8!-4[0.000001##0.000001]m,8,
{2}1b/5b`2!v4[1.104##0.184]m/6!v8[1.104##0.184]m,
{4},
{64}
8!^7[0.000001##0.000001]m,
8!^7^6[0.000001##0.000001]m,
8!^7^6^5[0.000001##0.000001]m,
8!^7^6^5^4[0.000001##0.000001]m,
8!^7^6^5^4^3[0.000001##0.000001]m,
8!^7^6^5^4^3^2[0.000001##0.000001]m,
8!^7^6^5^4^3^2^1[0.000001##0.000001]m,
8!^7^6^5^4^3^2^1^8[0.000001##0.000001]m,
8!^7^6^5^4^3^2^1^8[0.000001##0.000001]m,
8!^7^6^5^4^3^2^1^8[0.000001##0.000001]m,
8!^7^6^5^4^3^2^1^8[0.000001##0.000001]m,
8!^7^6^5^4^3^2^1^8[0.000001##0.000001]m,
8!^7^6^5^4^3^2^1^8[0.000001##0.000001]m,
8!^7^6^5^4^3^2^1^8[0.000001##0.000001]m,
8!^7^6^5^4^3^2^1^8[0.000001##0.000001]m,
8!^7^6^5^4^3^2^1^8[0.000001##0.000001]m,
{32}
8!^7^6^5^4^3^2^1[0.000001##0.000001]m/2m/5m,
8!^7^6^5^4^3^2^1[0.000001##0.000001]m,
8!^7^6^5^4^3^2^1[0.000001##0.000001]m,
8!^7^6^5^4^3^2^1[0.000001##0.000001]m,
8!^7^6^5^4^3^2^1[0.000001##0.000001]m,
8!^7^6^5^4^3^2^1[0.000001##0.000001]m/3m/4m,
8!^7^6^5^4^3^2^1[0.000001##0.000001]m,
8!^7^6^5^4^3^2^1[0.000001##0.000001]m,
8!^7^6^5^4^3^2^1[0.000001##0.000001]m,
8!^7^6^5^4^3^2^1[0.000001##0.000001]m,
8!^7^6^5^4^3^2^1[0.000001##0.000001]m/3m,
8!^7^6^5^4^3^2^1[0.000001##0.000001]m,
8!^7^6^5^4^3^2^1[0.000001##0.000001]m/4m,
8!^7^6^5^4^3^2^1[0.000001##0.000001]m,
8!^7^6^5^4^3^2^1[0.000001##0.000001]m/3m,
8!^7^6^5^4^3^2^1[0.000001##0.000001]m,
8!^7^6^5^4^3^2^1[0.000001##0.000001]m/5m,
8!^7^6^5^4^3^2^1[0.000001##0.000001]m,
8!^7^6^5^4^3^2^1[0.000001##0.000001]m,
8!^7^6^5^4^3^2^1[0.000001##0.000001]m,
8!^7^6^5^4^3^2^1[0.000001##0.000001]m,
8!^7^6^5^4^3^2^1[0.000001##0.000001]m/6m/5m,
8!^7^6^5^4^3^2^1[0.000001##0.000001]m,
8!^7^6^5^4^3^2^1[0.000001##0.000001]m,
8!^7^6^5^4^3^2^1[0.000001##0.000001]m,
8!^7^6^5^4^3^2^1[0.000001##0.000001]m,
8!^7^6^5^4^3^2^1[0.000001##0.000001]m/6m,
8!^7^6^5^4^3^2^1[0.000001##0.000001]m,
8!^7^6^5^4^3^2^1[0.000001##0.000001]m/5m,
8!^7^6^5^4^3^2^1[0.000001##0.000001]m,
8!^7^6^5^4^3^2^1[0.000001##0.000001]m/6m,
8!^7^6^5^4^3^2^1[0.000001##0.000001]m,
8!^7^6^5^4^3^2[0.000001##0.000001]m/4m,
8!^7^6^5^4^3^2[0.000001##0.000001]m,
8!^7^6^5^4^3^2[0.000001##0.000001]m,
8!^7^6^5^4^3^2[0.000001##0.000001]m,
8!^7^6^5^4^3^2[0.000001##0.000001]m,
8!^7^6^5^4^3^2[0.000001##0.000001]m/3m/5m,
8!^7^6^5^4^3^2[0.000001##0.000001]m,
8!^7^6^5^4^3^2[0.000001##0.000001]m,
8!^7^6^5^4^3^2[0.000001##0.000001]m,
8!^7^6^5^4^3^2[0.000001##0.000001]m,
8!^7^6^5^4^3^2[0.000001##0.000001]m/6m,
8!^7^6^5^4^3^2[0.000001##0.000001]m,
8!^7^6^5^4^3^2[0.000001##0.000001]m/4m,
8!^7^6^5^4^3^2[0.000001##0.000001]m,
8!^7^6^5^4^3^2[0.000001##0.000001]m/5m,
8!^7^6^5^4^3^2[0.000001##0.000001]m,
8!^7^6^5^4^3^2[0.000001##0.000001]m/4m-1m[8:1]/5m-8m[8:1],
8!^7^6^5^4^3^2[0.000001##0.000001]m,
8!^7^6^5^4^3^2[0.000001##0.000001]m,
8!^7^6^5^4^3^2[0.000001##0.000001]m,
8!^7^6^5^4^3^2[0.000001##0.000001]m,
8!^7^6^5^4^3^2[0.000001##0.000001]m,
8!^7^6^5^4^3^2[0.000001##0.000001]m,
8!^7^6^5^4^3^2[0.000001##0.000001]m,
8!^7^6^5^4^3^2[0.000001##0.000001]m/4m/5m,
8!^7^6^5^4^3^2[0.000001##0.000001]m,
8!^7^6^5^4^3^2[0.000001##0.000001]m,
8!^7^6^5^4^3^2[0.000001##0.000001]m,
8!^7^6^5^4^3^2[0.000001##0.000001]m,
8!^7^6^5^4^3^2[0.000001##0.000001]m,
8!^7^6^5^4^3^2[0.000001##0.000001]m,
8!^7^6^5^4^3^2[0.000001##0.000001]m,
8!^7^6^5^4^3[0.000001##0.000001]m/2m-5[8:1]m/8m,
8!^7^6^5^4^3[0.000001##0.000001]m,
8!^7^6^5^4^3[0.000001##0.000001]m,
8!^7^6^5^4^3[0.000001##0.000001]m,
8!^7^6^5^4^3[0.000001##0.000001]m/3m,
8!^7^6^5^4^3[0.000001##0.000001]m,
8!^7^6^5^4^3[0.000001##0.000001]m/4m,
8!^7^6^5^4^3[0.000001##0.000001]m,
8!^7^6^5^4^3[0.000001##0.000001]m/2m,
8!^7^6^5^4^3[0.000001##0.000001]m,
8!^7^6^5^4^3[0.000001##0.000001]m,
8!^7^6^5^4^3[0.000001##0.000001]m,
8!^7^6^5^4^3[0.000001##0.000001]m/6m,
8!^7^6^5^4^3[0.000001##0.000001]m,
8!^7^6^5^4^3[0.000001##0.000001]m,
8!^7^6^5^4^3[0.000001##0.000001]m,
8!^7^6^5^4^3[0.000001##0.000001]m/7m-4[8:1]m/1m,
8!^7^6^5^4^3[0.000001##0.000001]m,
8!^7^6^5^4^3[0.000001##0.000001]m,
8!^7^6^5^4^3[0.000001##0.000001]m,
8!^7^6^5^4^3[0.000001##0.000001]m/6m,
8!^7^6^5^4^3[0.000001##0.000001]m,
8!^7^6^5^4^3[0.000001##0.000001]m/5m,
8!^7^6^5^4^3[0.000001##0.000001]m,
8!^7^6^5^4^3[0.000001##0.000001]m/7m,
8!^7^6^5^4^3[0.000001##0.000001]m,
8!^7^6^5^4^3[0.000001##0.000001]m,
8!^7^6^5^4^3[0.000001##0.000001]m,
8!^7^6^5^4^3[0.000001##0.000001]m/3m,
8!^7^6^5^4^3[0.000001##0.000001]m,
8!^7^6^5^4^3[0.000001##0.000001]m,
8!^7^6^5^4^3[0.000001##0.000001]m,
8!^7^6^5^4[0.000001##0.000001]m/2m/4m-8m[8:1],
8!^7^6^5^4[0.000001##0.000001]m,
8!^7^6^5^4[0.000001##0.000001]m,
8!^7^6^5^4[0.000001##0.000001]m,
8!^7^6^5^4[0.000001##0.000001]m/3m,
8!^7^6^5^4[0.000001##0.000001]m,
8!^7^6^5^4[0.000001##0.000001]m/5m,
8!^7^6^5^4[0.000001##0.000001]m,
8!^7^6^5^4[0.000001##0.000001]m/4m,
8!^7^6^5^4[0.000001##0.000001]m,
8!^7^6^5^4[0.000001##0.000001]m,
8!^7^6^5^4[0.000001##0.000001]m,
8!^7^6^5^4[0.000001##0.000001]m/6m,
8!^7^6^5^4[0.000001##0.000001]m,
8!^7^6^5^4[0.000001##0.000001]m,
8!^7^6^5^4[0.000001##0.000001]m,
8!^7^6^5^4[0.000001##0.000001]m/1m,
8!^7^6^5^4[0.000001##0.000001]m,
8!^7^6^5^4[0.000001##0.000001]m/2m,
8!^7^6^5^4[0.000001##0.000001]m,
8!^7^6^5^4[0.000001##0.000001]m/3m,
8!^7^6^5^4[0.000001##0.000001]m,
8!^7^6^5^4[0.000001##0.000001]m/4m,
8!^7^6^5^4[0.000001##0.000001]m,
8!^7^6^5^4[0.000001##0.000001]m/8m,
8!^7^6^5^4[0.000001##0.000001]m,
8!^7^6^5^4[0.000001##0.000001]m/7m,
8!^7^6^5^4[0.000001##0.000001]m,
8!^7^6^5^4[0.000001##0.000001]m/6m,
8!^7^6^5^4[0.000001##0.000001]m,
8!^7^6^5^4[0.000001##0.000001]m/5m,
8!^7^6^5^4[0.000001##0.000001]m,
8!^7^6^5[0.000001##0.000001]m/1m,
8!^7^6^5[0.000001##0.000001]m,
8!^7^6^5[0.000001##0.000001]m,
8!^7^6^5[0.000001##0.000001]m,
8!^7^6^5[0.000001##0.000001]m,
8!^7^6^5[0.000001##0.000001]m/2m/4m,
8!^7^6^5[0.000001##0.000001]m,
8!^7^6^5[0.000001##0.000001]m,
8!^7^6^5[0.000001##0.000001]m,
8!^7^6^5[0.000001##0.000001]m,
8!^7^6^5[0.000001##0.000001]m/6m,
8!^7^6^5[0.000001##0.000001]m,
8!^7^6^5[0.000001##0.000001]m/5m,
8!^7^6^5[0.000001##0.000001]m,
8!^7^6^5[0.000001##0.000001]m/6m,
8!^7^6^5[0.000001##0.000001]m,
8!^7^6^5[0.000001##0.000001]m/4m/7m,
8!^7^6^5[0.000001##0.000001]m,
8!^7^6^5[0.000001##0.000001]m,
8!^7^6^5[0.000001##0.000001]m,
8!^7^6^5[0.000001##0.000001]m,
8!^7^6^5[0.000001##0.000001]m/3m,
8!^7^6^5[0.000001##0.000001]m,
8!^7^6^5[0.000001##0.000001]m,
8!^7^6^5[0.000001##0.000001]m,
8!^7^6^5[0.000001##0.000001]m,
8!^7^6^5[0.000001##0.000001]m/4m,
8!^7^6^5[0.000001##0.000001]m,
8!^7^6^5[0.000001##0.000001]m/3m,
8!^7^6^5[0.000001##0.000001]m,
8!^7^6^5[0.000001##0.000001]m/4m,
8!^7^6^5[0.000001##0.000001]m,
8!^7^6[0.000001##0.000001]m/2m,
8!^7^6[0.000001##0.000001]m,
8!^7^6[0.000001##0.000001]m,
8!^7^6[0.000001##0.000001]m,
8!^7^6[0.000001##0.000001]m,
8!^7^6[0.000001##0.000001]m/4m/5m,
8!^7^6[0.000001##0.000001]m,
8!^7^6[0.000001##0.000001]m,
8!^7^6[0.000001##0.000001]m,
8!^7^6[0.000001##0.000001]m,
8!^7^6[0.000001##0.000001]m/6m,
8!^7^6[0.000001##0.000001]m,
8!^7^6[0.000001##0.000001]m/5m,
8!^7^6[0.000001##0.000001]m,
8!^7^6[0.000001##0.000001]m/7m,
8!^7^6[0.000001##0.000001]m,
8!^7^6[0.000001##0.000001]m/4m-8m[8:1],
8!^7^6[0.000001##0.000001]m,
8!^7^6[0.000001##0.000001]m,
8!^7^6[0.000001##0.000001]m,
8!^7^6[0.000001##0.000001]m,
8!^7^6[0.000001##0.000001]m,
8!^7^6[0.000001##0.000001]m,
8!^7^6[0.000001##0.000001]m,
8!^7^6[0.000001##0.000001]m/2m/4m,
8!^7^6[0.000001##0.000001]m,
8!^7^6[0.000001##0.000001]m,
8!^7^6[0.000001##0.000001]m,
8!^7^6[0.000001##0.000001]m,
8!^7^6[0.000001##0.000001]m,
8!^7^6[0.000001##0.000001]m,
8!^7^6[0.000001##0.000001]m,
8!^7[0.000001##0.000001]m/1h[8:1]m,
8!^7[0.000001##0.000001]m,
8!^7[0.000001##0.000001]m,
8!^7[0.000001##0.000001]m,
8!^7[0.000001##0.000001]m/4m,
8!^7[0.000001##0.000001]m,
8!^7[0.000001##0.000001]m,
8!^7[0.000001##0.000001]m,
8!^7[0.000001##0.000001]m,
8!^7[0.000001##0.000001]m,
8!^7[0.000001##0.000001]m/3m,
8!^7[0.000001##0.000001]m,
8!^7[0.000001##0.000001]m/4m,
8!^7[0.000001##0.000001]m,
8!^7[0.000001##0.000001]m/2m,
8!^7[0.000001##0.000001]m,
8!^7[0.000001##0.000001]m/5m,
8!^7[0.000001##0.000001]m,
8!^7[0.000001##0.000001]m,
8!^7[0.000001##0.000001]m,
8!^7[0.000001##0.000001]m,
8!^7[0.000001##0.000001]m/4m/6m,
8!^7[0.000001##0.000001]m,
8!^7[0.000001##0.000001]m,
,,5m,,4m,,6m,,
{4}
3-8[8:1]/7-4[8:1]`3!-8[0.000001##0.000001]m`7!-4[0.000001##0.000001]m,
3/7,
2<7[8:1]/6>3[8:1]`2!<7[0.000001##0.000001]m`6!>3[0.000001##0.000001]m,
2/6`3!<6[0.000001##0.000001]m`7!>2[0.000001##0.000001]m,
{16}
2/5h[8:1],,,3,4,,5,4,6,,6,5,7,,1-5[8:1],8,
2,,1-3[8:1]`1!-4[0.000001##0.000001]m/1!-6[0.000001##0.000001]m,,
6,,1-7[8:1]`1!>4[0.000001##0.000001]m/1!<6[0.000001##0.000001]m,,
7,,1-3[8:1]`1!-4[0.000001##0.000001]m/1!-6[0.000001##0.000001]m,,
4,,1`1!>4[0.000001##0.000001]m/1!<6[0.000001##0.000001]m,,
7h[8:1],,,5,6,,4,5,3,,3,4,2,,8-4[8:1],1,
7,,8-2[8:1]`8!-5[0.000001##0.000001]m/8!-3[0.000001##0.000001]m,,
3,,8-6[8:1]`8!<5[0.000001##0.000001]m/8!>3[0.000001##0.000001]m,,
5,,8`8!-5[0.000001##0.000001]m/8!-3[0.000001##0.000001]m,,
2,,3,,
4/6,,,3/5,,,2,4,3h[16:3],,,5h[8:1],,,4,5,
3,,6,5,7,,3,4,2-4[8:1]*-5[8:1],,,,2,,,,
4/6,,,7/5,,,7,5,6h[16:3],,,4h[8:1],,,5,4,
6`1!>2m[0.92##0.0001],,
5/7`1!>3m[0.736##0.0001],,
1/8`1!>4m[0.552##0.0001],,
2/4`1!>5m[0.368##0.0001],,
4/5`1!>6m[0.184##0.0001],,
2/7`1!>8m[0.000001##0.000001],,
{48}1b/8b`4!-1m[0.000001##0.000001]/5!-8m[0.000001##0.000001],2b/7b,3b/6b,4b/5b,,,,,,,,,
{16}
7`3h[8:1]m/4h[8:1]m,,5,6,5`3h[8:1]m/4h[8:1]m,,7,,
5/6`2h[8:1]m/4h[8:1]m,,8,,5`2h[8:1]m/4h[8:1]m,5,6,,
5/7`1h[8:1]m/4h[8:1]m,,7,5,6`1h[8:1]m/4h[8:1]m,,6,5,
7`2m<7[8:1]m/4h[8:1]m,,{24}7,6,5,{4}4,
{16}
2`6h[8:1]m/5h[8:1]m,,4,3,4`6h[8:1]m/5h[8:1]m,,2,,
4/3`7h[8:1]m/5h[8:1]m,,1,,4`7h[8:1]m/5h[8:1]m,4,3,,
4/2`8h[8:1]m/5h[8:1]m,,2,4,3`8h[8:1]m/5h[8:1]m,,3,4,
2`7m>5[8:1]m/5h[8:1]m,,
{24}2,3,4,5,6,7,8,,,
{16}
1h[8:1]`6h[8:1]m,,7,7,
8`6h[8:1]m,,2,2,
1`6h[8:1]m/5h[8:1]m,,8,1,
7`6h[8:1]m/5h[8:1]m,,1,8,
2`6h[8:1]m/5h[8:1]m/4h[8:1]m,,7,8,
7`6h[8:1]m/5h[8:1]m/4h[8:1]m,,2,1,
2`6h[8:1]m/5h[8:1]m/4h[8:1]m/3h[8:1]m,,8,,
{24}8`6m/5m/4m/3m,7,6,{8}5,
{16}
4h[8:1]`7h[8:1]m/8h[8:1]m/1h[8:1]m/2h[8:1]m,,6,6,
5`2h[8:1]m/8h[8:1]m/1h[8:1]m,,3,3,
4`2h[8:1]m/1h[8:1]m,,5,4,
6`2h[8:1]m,,4,5,
{8}
3`1!v8[0.000001##0.000001]m/8!v1[0.000001##0.000001]m,
3/4`2!v8[0.000001##0.000001]m/7!v1[0.000001##0.000001]m,
4/5`3!v8[0.000001##0.000001]m/6!v1[0.000001##0.000001]m,
5/6`5!-8[0.000001##0.000001]m/4!-1[0.000001##0.000001]m,
4-1b[8:1]/5-8b[8:1],
5!-8[0.184##0.0001]m/4!-1[0.184##0.0001]m,
A4/A5/D5f,,
{16}
8x`3h[16:3]m,7,8,6`4h[16:3]m,8,8,7`2h[8:1]m,1,
7`4h[16:3]m,8,7-5[8:1],8`2h[16:3]m,8,,7`3h[8:1]m,,
4`1h[16:3]m,4,5x,3`7h[16:3]m,5,4,6`8h[8:1]m,5,
4-2[8:1]/6`7mv5[16:1]m,,3/5,,4/6,,,,
1x`6h[16:3]m,2,1,3`5h[16:3]m,1,1,2`7h[8:1]m,8,
2`5h[16:3]m,1,2-4[8:1],7h[16:3]m,1,8,2`6h[8:1]m,,
5`8h[16:3]m,5,4x,6`2h[16:3]m,4,5,3`1h[8:1]m,4,
5-7[8:1]/3`2mv4[16:1]m,,6/4,,5/3,,,,
8<5[8:1]`4m,1`5m,2`6m,3`7m,8/4,,,,
8-6>5[8:1]`4m,1`5m,2`6m,3`7m,8/4,,,,
1<6[8:1]`5m,2`6m,3`7m,4`8m,1/5,,,,
1-7<6[8:1]`5m,2`6m,3`7m,4`8m,1/5,,,,
2`7m,4`5m,3`6m,4`5m,2`7m,4`5m,3`6m,4`5m,
1`8m,4`5m,3`6m,4`5m,1`8m,4`5m,3`6m,4`5m,
{32}
1,2,3,4,5,6,7,8,
1m,2m,3m,4m,5m,6m,7m,8m,
7,6,5,4,3,2,1,8,
7m,6m,5m,4m,3m,2m,1m,8m,
{8}3bxv5-7[2:1]/7bxv1-3[2:1]m,,{4},,{8},4/8,
{4}4v2-8[2:1]/8v6-4[2:1]m,,,{8},5/1,
{4}5p8[2:1]/1p4[2:1]m,,,{8},3/7,
{16}4,6,4,6,3,5,3,5,2,4,2,4,
{32}1,8,7,6,5,4,3,2,
{16}
8b/1b`8!w4[0.000001##0.000001]m/4!w8[0.000001##0.000001]m,,2,4,
3,,4`8!-5[0.0001##0.092]m,3,
4`8!-5[0.0001##0.368]m,3,5,3,
4,,2b`2!-6[0.000001##0.000001]m,,
8b`8!-4[0.000001##0.000001]m,,7,5,
6,,5`1!-4[0.0001##0.092]m,6,
5`1!-4[0.0001##0.368]m,6,4,6,
5,,7b`7!-3[0.000001##0.000001]m,,
2b`2!w6[0.000001##0.000001]m,4,3,4,3,4,
1b`1!w5[0.000001##0.000001]m,4,3,4,3,4,
{4}
8b`8!w4[0.000001##0.000001]m,
{16}
1`8!v1[0.000001##0.000001]m,
2`8!v2[0.000001##0.000001]m,
3`8!v3[0.000001##0.000001]m,
4`8!-4[0.000001##0.000001]m,
1`8!v1[0.000001##0.000001]m,
2`8!v2[0.000001##0.000001]m,
3`8!v3[0.000001##0.000001]m,
4`8!-4[0.000001##0.000001]m,
8`8!w4[0.000001##0.000001]m,
7`8!v7[0.000001##0.000001]m,
6`8!v6[0.000001##0.000001]m,
5`8!v5[0.000001##0.000001]m,
4`8!-4[0.000001##0.000001]m,
3`8!v3[0.000001##0.000001]m,
2`8!v2[0.000001##0.000001]m,
1`8!v1[0.000001##0.000001]m,
{1}8`8!w4[0.0001##1.4723]m,
{16}
2,4,3,7,5,6,1,3,2,8,6,7,
{32}
1w5b[8:1],2,3,4,5,6,7,8,1b/Cf`5!w1[0.000001##0.000001]m,
