&title=星を廻せ月より速く
&artist=yukina
&first=0
&lv_5=13
&des=(⊙﹏⊙)
&inote_5=
(182){4},,,,,,,,{1}3h[1:1],
4h[1:1],
5h[1:1],
6h[1:1],
8v5[2:1],
1-4[2:1],
8<5[2:1],
1>4[2:1],
3h[2:1],
4h[2:1],
{2}5h[2:1],4h[2:1],
{1}3h[2:1],
8q6[4:5]*>6[4:5],
,8w4[4:5],
{8},,,,,,,,6b/2b,
,,,,2,3,4,
{2}5bx/6bxh[4:3],3h[4:1],
{4}3/4,5/4,{8}6,5,,6<8[8:1],
,4,,5<7[8:1],,3,{4}2,
7/8,1/8,{8}2,1,,2>4[8:1],
,8,,1>3[8:1],,7,{4}6,
3/4,5/4,{8}6,5,,6<8[8:1],
,4,,5<7[8:1],,3,{4}2,
7/8,{8}1/8,2,1,8,,6-1[8:1],
5,4,,3-8[8:1],,4,{4}5,
8/6,3/1,{8}2,1,,2-5[8:1],
,8,,2-5[8:1],,8,{4}7,
{8}3,4,2,4,3,5,,7-4[8:1],
,1,,7-4[8:1],,1,{4}2,
4/2,5/7,{8}1,8,,1-4[8:1],
,7,,1-4[8:1],,7,{4}6,
{1}5V38[2:1]/4V61[2:1],
{4}1<6[8:1],7/1,{8}8-4[8:1],4,{4}2,
1h[8:3],{8}5,5,{4}1x,3/4h[4:1],
B5/B4/B3,2-4[8:1],2x,6,
8/3,{8}1-5[8:1],2,{4}1x,{8}4,5,
{4}4,7-5[8:1],7x,3,
1h[8:3],{8}5,5,{4}1x,3/4h[4:1],
B5/B4/B3,2-4[8:1],2x,6,
8/3,{8}1-5[8:1],2,{4}1x,{8}4,5,
{4}4<7[4:1],7>2[4:1],2x,5,
5/4h[8:3],{8}5,5,{4}1x,3/4h[4:1],
B5/B4/B3,2-4[8:1],2x,6,
8/3,{8}1-5[8:1],2,{4}1x,{8}4,5,
{4}4,4/2-6[4:1],6x-1[4:1],1>5[2:1],
5,{8}6,7,{4}8x,{8}8,8h[8:5],
,,{4}5-1[8:1],5x,{8}4,4-8[8:1],
{4}3,{8}5-1[8:1],5,{4}6x,2bx>6[8:3]/6bx<2[8:3],
,,1x,{24}1h,8h,7h,6h,5h,4h,
{4}3b,{8}2,2,{4}2x,{8}4/3h[4:1],5,
{4}6,4-1[8:1],4x,6,
8/7,{8}1-5[8:1],8,{4}1x,{8}6,5,
{4}6,4-1[8:1],5x,6,
7/8,{8}1,1,{4}1x,{8}4/3h[4:1],5,
{4}6,4-1[8:1],4x,6,
8/7,{8}1-5[8:1],8,{4}1x,{8}6,5,
{4}6v4[4:1],4v2[4:1],2x,1,
4/3,{8}3,3,{4}1x,{8}4/2h[4:1],5,
{4}6,1-4[8:1],1x,7,
6/5,{8}4-8[8:1],5,{4}4x-7[8:1],4x,
{8}1,1,{4}1-4[8:1],8x,7,
6b/2b,{8}1,1,{4}3x,{8}4/3h[8:3],5-1[8:1],
,,{4}3-7[8:1],8x,{8}6-2[8:1],6,
{4}1,{8}3-7[8:1],3,{4}8x,1,
{8}2-4[8:1],2,,,{4}7h[4:1]/5x-1[8:1],5,
2b-5[8:1],7,{8}6/2-5[8:1],7,{4}8,
7-4[8:1],2,{8}3/7-4[8:1],2,{4}1,
2-4[8:1],6-8[8:1],{8}3,2,{4}1,
8-4[8:1],2,{8}1<6[8:1],5,{4}7,
8-4[8:1],3,1-5[8:1],6,
7-4[8:1],3-8[8:1],6-1[8:1],2,
4-7[8:1],6,{8}8/5-2[8:1],8,{4}8,
1-5[8:1],8-4[8:1],{8}3,2,{4}1,
1b-4[8:1],7,{8}6/1-4[8:1],7,{4}8,
8-5[8:1],2,{8}3/8-5[8:1],2,{4}1,
1-4[8:1],{8}5,6,{4}7/2-6[8:1],2,
8-2[8:1]*<6[8:1],8-4[8:1],8,6b/2b,
{8}8/4-2[8:1],8,{4}4/8-6[8:1],8/3V14[4:1],{8}7,7,
{4}7-3[8:1],7/2-6[8:1],2,8,
{8}4/8-6[8:1],4,{4}8/4-2[8:1],4/7V15[4:1],{8}7/3,3,
{4}3-7[8:1],6-2[8:1],6,1,
3b-6[8:1],1/3,{8}7b-2[8:1],6,{4}5,
{16}7/3,,,5/1,,,{8}3,3,4,{24}5,4,6,5,,,{4}7b-5[8:1],
{8}8,1,1/4-8[8:1],2,{4}3,
4/7-5[8:1],{8}4,3,3/4-8[8:1],2,{4}1,
3/7-5[8:1],{8}3,2,1/4-8[8:1],2,{4}3,
5/7-4[8:1],{8}3,2,{4}1h[4:1],4,
2-4[8:1],{8}1,8,8/5-1[8:1],7,{4}6,
5/2-4[8:1],{8}5,6,6/5-1[8:1],7,{4}8,
6/2-4[8:1],{8}6,7,8/5-1[8:1],7,{4}6,
4/2-5[8:1],{8}6,7,8,2,{4}4,
7b/8b-4[8:1],8/4-8[8:1],2>5[8:1],2-7[8:1]*-6[8:1],
2,8/4-8[8:1],6<1[8:1],2>5[8:1],
8-4b[8:1],{8}3b,2,{4}1-4-8[4:1],{8}5b,6,
{4}7,8/1<3[4:1],{8}1,{24}A8,D8,A7,D7,A6,D6,A5,,,{8}2b,
3/1,,7b,{4}6/8,{8}5b/4b,6/3,
{4}1-4b[8:1]*-3b[8:1],1b-6[8:1]*-7[8:1],1b-5b[8:1],1bw5b[8:1],
1,7b/3b,1b-4b[8:1],1b>8[4:3],
3,5,7,{24}1,2,{6}3,
{8}2b-5[8:1],1,2,8,2-5[8:1],1,2,8,
2-5[8:1],1,2,8-5[8:1],4,3,2,1,
7b-4[8:1],8,7,1,7-4[8:1],8,7,1,
7-4[8:1],8,7,1-4[8:1],5,6,7,8,
1b/2b-5[8:1],1,2/8,8,1/2-5[8:1],1,2/8,8,
1/2-5[8:1],1,2/8,8-5[8:1],4,3,2,1,
7b-4[8:1],8,1b-6[8:1],2,3b-8[8:1],4,5b-2[8:1],6,
7b,7,1,8,2b/1b,4,2b-6b[8:1],7,
{1}B8/B7/B6/B4/B3/B2/Cf,
E
