&title=sister's noise
&artist=fripSide
&first=1.01
&des=Delta-V
&lv_5=13
&inote_5=(144){16}
4,,,4,,,4,,,4,,,6,,6,,
5,,,5,,,5,,,5,,,4,,4,,
3h[4:3],,,4,,,4,,,4,,,4,,5,,
6h[4:3],,,5,,,5,,,5,,,5,,4,,
3x/4xh[16:3],,3,,3/4h[16:2],,3,,3/4h[16:1],,3,,34,,45,,
6/5h[16:3],,6,,6/5h[16:2],,6,,6/5h[16:1],,6,,65,,54,,
3,4,3,4,2,4,2,4,1,4,1,4,{32}1x,8x,7x,6x,5x,4x,3x,2x,{16}
1x/7b,,,4b/5x,,,3x^4z8[32:6]/7b^6s2[32:6]b,,,,,,,,,,
1xs5[16:3],,,,5,,6-8-5-1[16:5],6,,,4,,3,,2,,
2h[16:3],,,4h[16:3],,,3,,2h[4:1]/5,,,,A8/A1/E1/D1,,,,
3xh[4:1]/7x,,,,4h[8:1],,1-7-3-5[16:5],1,,,5,,6,,7,,
7h[16:3],,,5h[16:3],,,6,,7h[4:1]/4,,,,A8/A1/E1/D1,,6,6,
3xh[4:1],,,,4h[4:1],,,,5-3-6-1[256:101],,,,6-2[256:37]*-1[256:37],,,,
,,,,38,,4,,56,,7,,18,,2,,
3x/4x,,3,,38,,3,,4x/5x,,45,,56,,56,,
4x,7,4x,7,4x,8,4x,8,{32}E5,E6,E7,E8,E1,E2,E3,E4,E5,E6,E7,E8,E1,E2,E3,E4,{16}
6x,,6,,6,5,,6,,6,,6,5,,45,,
3x,,3,,3,4,,3,,3,,3,4,,54,,
65,,,,E1/B1/B2/E3,,,,34,,,,E1/B8/B7/E7,,,,
65,,,,A8/E1/E2/A2,,,,34,,,,A1/E1/E8/A7,,,,
6h[4:1]/5,,,,E2/A2/D2,,,,3h[4:1]/4,,,,E8/A7/D8,,,,
6h[4:1]/5,,,,A1/B1/E1,,,,3h[4:1]/4,,,,A8/B8/E1,,,,
6/5h[8:1],,,,B6/B7/5h[8:1],,,,3/4h[8:1],,,,B3/B2/4h[8:1],,,,
6/5h[8:1],,,,E8/B7/5h[8:1],,,,3/4h[8:1],,,,E2/B2/4h[8:1],,,,
6/5h[4:1],,6,,6,5,,7h[4:1]/5,,5,,5,6,,45,,
3/4h[4:1],,3,,3,4,,2h[4:1]/4,,4,,4,3,,54,,
6x^7-4[16:3],,,4-8[8:1],,,1,,3^2-5[16:3],,,5-1[8:1],,,8,,
6^7-4[16:3],,,4-8[8:1],,,1,,3h[4:1],,,,C,,,,
1x-5^6[16:3],,,6-4[8:1],,,7,,8-4^3[16:3],,,3-5[8:1],,,2,,
1-5^6[16:3],,,6-4[8:1],,,7,,8h[4:1],,,,C,,,,
7x-4^5[16:3],,,5-1[8:1],,,3,,2-5^4[16:3],,,4-8[8:1],,,6,,
7-4^5[16:3],,,5-1[8:1],,,3,,2h[4:1],,,,C,,,,
3x/4x,,3,,3/B1,,3,,45,,4,,4/B8,,4,,
6,5,6,5,7,5,7,5,8,5,8,5,{32}8x,1x,2x,3x,4x,5x,6x,7x,{16}
8x/2b,,,5b/4x,,,6x^5s1[32:6]/2b^3z7[32:6]b,,,,,,,,,,
2x-5-1[32:7],,,,25,,6,6h[16:3],,,2,,35,,64,,
7h[8:1],,5,6,,3,4,,2-5[8:1]/4-8[8:1],,,,24,,,,
7x-3-8[32:7],,,,74,,5,5h[16:3],,,7,,64,,35,,
2h[8:1],,4,3,,6,5,,7-3[8:1]/5,,,,71,,2,2,
4xh[4:1],,,,B2/E2,,6,5,,8,1-5[8:1],,7p3[8:1],,1,,
7x,,,,B2/E2,,6,5,,8,1-5[8:1],,7<8[32:9],,1,,
7x,,,,,,4,4,7,,65,,45,,34,,
5,2,5,2,5,1,5,1,{32}E5,E4,E3,E2,E1,E8,E7,E6,E5,E4,E3,E2,E1,E8,E7,E6,{16}
1xs5[16:3],,,,15,,6-8-5-1[4:1],6,,,4,,3,,2,,
2x/8x,,3,4,,6,5,,8-6[8:1]/5-1[8:1],,,,85,,,,
5xV74[16:3],,,,52,,3-5-2-8[4:1],3,,,5,,6,,7,,
7x/1x,,6,5,,3,4,,1^4[8:1]/4,,,,18,,6,6,
5x>8[4:1],,,,5/8^6[10:1],,,,4-8[8:1],,,,1w5[8:1]/4,,,,
1x,,,,73,,8,,12,,3,,45,,6,,
7x/8x,,16,,25,,34,,1x/2x,,38,,47,,56,,
1x/8bx,,2bxz6[16:3]/7xs3[16:3]b,2x/7bx,,,,,,,,,45,,36,,
2x-6[8:1],,8-4[8:1],,2,,8,,1x-5[8:1],,7-3[8:1],,1,,7,,
2x,2,8x,8,1x,1,7x,7,{32}2x,E3,E4,E5,8x,E8,E7,E6,1x,E2,E3,E4,7x,E7,E6,E5,{1}
1bs5[2:1]b*-6^7-3[2:1]b,
