&title= この感情は使命
&artist=安瀬聖
&first=0
&des=XY
&des_5=XY
&lv_5=13
&inote_5=(184)
{8}
,,,,
6,5,6,5,7,7-1[8:1],,57,,4,4,4,,
5,5,3,
3,4,3,4,2,2-8[8:1],,24,,5,5,5,,
4,4,6,
6,5,6,5,6,7-1[8:1],,57,,4,4,4,,
5,5,3,
3,4,3,4,3,2-8[8:1],,24,,5,6,7,
1s5[8:1]/8-4[8:1],18,,,
{8}
6,5,6,5,7,7-1[8:1],,5/7v5[4:1],,4,3,2,,
3,3,4,
3,4,3,4,2,2-8[8:1],,4/2>1[4:3],,1x,1x,2x,2x,3,
4,5,
6,5,6,5,7,7-1[8:1],,4>2[8:1]/7,,7,6,5,,
1,1,1,
{16}
8s4[8:1]/2h[4:1],,,,
,,8bx,,,,,,1z5[8:1]/7h[4:1],,,,,,1b,,,,,,,,,,,,,,
{16}
45,,,,2,,1q5[4:1],,,,3,,4>5[2:1],,,,,,,,,,
,,,,8,,8,,8,,5>2[8:1],,,,15,,8v5[8:1],,,,1/8<6[8:1],,,,3,,,,1,,1,,1,,
,,5,,5,,5,,
46,,,,7,,8p4[4:1],,,,6,,5<4[2:1],,,,,,,,,,
,,,,1,,1,,1,,4<7[8:1],,,,4,,1>4[8:1],,,,1,,6p4[2:1],,,,,,,,,,,,,
,1,,1,,1,,82,,,,3,,4p8[4:1],,,,2,,1>8[2:1],,,,,,,,,,
,,,,5,,5,,5,,8>3[8:1],,,,48,,5v8[8:1],,,,4/5>2[8:1],,,,7,,,,5,,5,,5,,
,,8,,8,,8,,
17,,,,6,,5q1[4:1],,,,7,,8<1[2:1],,,,,,,,,,
,,,,4,,4,,4,,1<6[8:1],,,,1,,4>1[8:1],,,,4,,7pp4[4:2],,,,3h[4:2],,,,,,,,,,,,,,,,
{8}
5,5,4,4,36,,8,1-5[8:1],,5,6<4[8:3],,5h[4:1],,,,
5,5,4,4,63,,1,8-4[8:1],,4,3>5[8:3],,4h[4:1],,,,
4,4,3,3,25,,8,1-5[8:1],,15,6q2[8:1],,3>7[4:1],,8<5q3[4:3],,
4h[4:3],,,,,,,,,8,8,8,
17,,26,,
6,6,5,5,47,,2,1-5[8:1],,3,4>6[8:3],,5h[4:1],,,,
3,3,4,4,52,,7,8-4[8:1],,6,5<3[8:4],,4,,3>5[4:3]*p5[4:3],,4,,,,,,,,
35,,26,,17,,8,8<1[2:5]*>4<1[2:5],,,,,,,,,,,,
{16}
E1,E2,E3,,
{8}
,,,,,,,C,,,,,,,,
{8}
8,8,1,1,2b-6[8:1],,8,1bs5[4:1],,7,8b<2[2:1],,,,,,,1,
1,1,2/8<5[8:1],,82,4q8[8:1],,1>4[8:1]/4,,1/6<4[2:1],,,5,,5,,5,,
7b-3[8:1],,1,8bz4[4:1],,2,1b>7[2:1],,,,,,,
8,8,8,7/1>4[8:1],,17,5q1[8:1],,8/5,6<4[2:1],,,,
5,5,
5,6,6,6,2b-6[8:1],,8,1bs5[4:1],,7,8b<2[2:1],,,,,,,1,
1,1,2/8<5[8:1],,82,4q8[8:1],,24,3>1[8:1],,5>3[8:1],,7<5[8:1],,
1<7[8:1],,3,
3,3b-7[8:1],,5,4bz8[4:1],,6,5b<3[2:1],,,,,,,4,
4,4,35,,2,1q5[4:1],,3,4xq8[4:1],,2,1x<6[4:1],,3,4x<7[4:1],,,,
{8}
3,3,4,4,
25,2<8[8:1]b/5>3[8:1],,2b/5<8[8:1],,1x,1,1,1-4[8:1],,1,,
6,6,5,5,
47,7>1[8:1]b/4<6[8:1],,7b/4>1[8:1],,8x,8,8,
57,57,57,,
3,3,4,4,
25,2<8[8:1]b/5>3[8:1],,2b/5<8[8:1],,,2q6[8:1],,2/8v5[8:1]
,,4>1[8:1]/8,,4/7-3[8:1],,71,1>5[8:3],,,8h[16:6],,,
6,7,5,6,4,5>1[16:6],5,6h[16:8],,,,
8x,7,6,5,4h[4:1],,1-4[8:1],,1x,
5,5,5,46,,37,37,,1,1,18,7h[8:3],8,1,2,7h[8:3],8,1,2,
7v5[8:1],,72,3v1[8:1],,36,8-4[8:1],,8/2-5[8:1],,
2/7-4[8:1],,7/1-5[8:1],,1/8w4[8:1],,8,,26,26,,4,4,4,3>5[4:5]/5,,
,,,,,,,,,,,,,,,,,,,,,,4h[8:15],,,,,,5h[8:9],,,,,,,,,,
45,45,45,45,,,27,27,27,2qq5[2:1]/7,,
{16}
,,E7/B6/B5,,
