&title=Demystify Feast (Arrange Version)
&artist=Original by ZUN; Arranged by あきやまうに
&first=0.017
&des=Masquerade.
&lv_5=14
&inote_5=(132){4},,,
{4}6pp1[88#2:1],,,4q5[88#3:1],,,
7^2[88#4:1],,,3V57[88#4:1],,,
8^3[88#4:1],,,4pp8[88#3:1],,,1>6[88#6:1],6p1[88#4:1],,7,8,,
8<4[88#4:1],,3,8V24[88#6:1],7,,
1-5[88#8:1]/2-8[88#8:1],,,8-6[88#6:1]/6qq4[88#6:1],8/6,,
7V14[88#4:1],4,,6,6,,
2V86[88#6:1],8,,6qq4[88#8:1],5,,
{4}6h[4:1]/4h[4:1],,,3h[4:1]/5h[4:1],
{4},,7h[4:1]/3h[4:1],,
(117){4},6h[4:1]/2h[4:1],{8},
(130){8},
(100){8}3b,7,
(140)
{8}6b/5b,4,5,3,3-1[8:1]/4,5,,7,
3/4,5,4,6,7-3[8:1]/3,2,,1,
8/7,1,8,1,2-4[8:1]/7,1h[8:1],,8,
1/2,8,1,7-5[8:1],1h[8:1],7-3[8:1],,,
1-3[8:1],1,5,6,7-4[8:1],4h[8:1],,3,
{8}3-1[8:1],4,5,6-8[8:1],1,2h[8:1],,6,
{8}5-7[8:1],5,1-5[8:1],1,7-3[8:1],7,,2,
{8}7-1[8:1],7,3-5[8:1],3,7b-3[8:1],,7b,,
{8}2b/4b,2/4,{16}4,5,3,,{8}6V82[8:1]/5,4,,3,
{8}7/5,7/5,{16}5,6,4,,2-6[8:1]/6,,{8}8-4[8:1],2,8,
,1/8,{16}1,8,2,,{8}7V53[8:1]/2,2h[8:1],,2,
1/7,1/7,{16}1,8,2V46[8:1],,{8}8h[8:1],,,8,
8-6[8:1],8,4,3,2V46[8:1],5h[8:1],,7,
{8}7-1[8:1],5,4,3-1[8:1],8,7,6,5,
{8}4-2[8:1],4,8-6[8:1],8,2-6[8:1],2,,7,
{8}7-1[8:1],7,3,3,
{8}6bv1[8:1]/5bp1[8:1],7/4,6b/5b,,
{16}8h[16:3]/3b,,,2,6,,4,,7,,7,,
{16}1h[16:3],,,7,3,,5,,4,,8,,
{16}3h[16:3],,,1^6[8:1],2,,1,,2,,3,,
{16}7h[16:3],,,2^5[8:1],1,,8,,7,,6,,
{16}5h[16:3],,,3,7,,8^3[8:1],,7h[8:1],,,,
{16}4h[16:3],,,5h[16:1],6h[16:2],,1^6[8:1],,2,,3,,
{16}2h[16:3],,,4h[16:1],6h[16:2],,1^6[8:1],,6,,5,,
{16}4h[16:3],,,8^5[8:1],3,,2,,1,,8^3[8:1],,
{16}7b/8b,,,6,7h[8:1],,4h[8:1],,1,,2^7[8:1]/6,,
4,,,3h[16:1],,,1h[8:1],,7h[8:1],,3h[8:1],,
{16}8^5[8:1],,,4^1[8:1],8-4[8:1],,4,,8-5[8:1],,,,
{4}8b^3[8:1],8b,7b,
{8}1bqq7[8:1]*-3[8:1],8/2,1,,
{8}5pp7[8:1]*-3[8:1],6/4,5,,
{8}4,5-8[8:1],{24}7,6,5,4h,,,
{8}3,2,1,,
{8}4-2[8:1],3,5-1[8:1],6,4-8[8:1],3,5-7[8:1],6,
{8}1,1,{16}1,8,2,7,{8}1^6[8:1],2,1b/2b,,
{8}8bqq6[8:1]*-2[8:1],1/7,8,,
{8}4pp6[8:1]*-2[8:1],3/5,4,,
{8}5,4-1[8:1],{24}7,6,5,4h,,,
{8}6,7,8,,
{8}5-1[8:1]/4-2[8:1],3,4-8[8:1]/5-7[8:1],,5p1[8:1]/4^2[8:1],,4q8[8:1]/5^7[8:1],,
{8}5/4,,5w1[8:1],6/4,
{4}5b,6b/4b,
{8}1bpp3[8:1]*qq7[8:1],8/2,1,,
{8}5pp7[8:1]*V31[8:1],6/4,5,,
{8}4,5-8[8:1],{24}7,6,5,4-1[8:1],,,
{24}2,3,4,5h,,,5h,,,,,,
{8}4-2[8:1]/5,3,4/5-1[8:1],6,5/4-8[8:1],3,4/5-7[8:1],6,
{8}1,1,{16}1,8,2,7,{8}1^6[8:1]/2p6[8:1],8/3,1b/2b,,
{8}8bqq6[8:1]*pp2[8:1],1/7,8,,
{8}4pp6[8:1]*V28[8:1],3/5,4,,
{8}5,4V28[8:1],{24}7,6,5,4h,,,
{8}6,7,8,,
{8}4-1[8:1]/5,{24}1,2,3,4-7[8:1],,,
{24}7,6,5,4v1[8:1],,,2,,,
{8}5/4v7[8:1],6,
{8}4pp6[8:1]*qq2[8:1],,4-8[8:1],,
{8}4/3,1b,1b,,
{4}8b^5[4:1],5^2[4:1],2<5[12:5],4,3,
{8}2,{32},,8,1,{4}2b^5[4:1],5^7[4:1],7-3[8:1],
(120){8}8,7,6/4,5/3,7/4,6/2,
{4},
(145){4}1b-5[8:2],,,
{8}1^6[8:1]/8,2,1/3,,
2^5[8:1]/6,5p1[8:1],2,7,
{8}7-3[8:1],2-4[8:1],7,2-6[8:1],,,,,
{8}1/2^5[8:1],3,2/8,7,
6-8[8:1],5,3-1[8:1]/6,2,
{4}3/7^4[4:1],3,2,1/7b,
{8}5b^2[8:1]/6,4,5/7,,
6^1[8:1]/3,1-5[8:1],6,3,
{8}2q6[8:1],7-4[8:1],2,7-1[8:1],,,,,
{8}3-1[8:1],8,7^4[8:1],6,
{8}7,3,5<4[2:1]*pp4[2:1],4,{4}5,,,{8}3b,5,
{24}3b,4,3,4,3,4,3,,,7,,,
7b,8,7,8,7,8,7,,,3,,,
{8}5b/4b,3,
{24}8/3b,7,6,5/2,,,
{8}1b,8,8,1,
{8}1bV35[4:1],8,5V71[4:1],6,1-3[8:1],5,6,7,
{8}5b/3b,2,6b/4b,7,{4}1s5[8:1]/8b,1b,
{24}2b,1,2,1,2,1,2,,,4,,,
7b,8,7,8,7,8,7,,,5,,,
{8}5b/4b,3,
{24}1/2b,8,7,6/4,,,
{8}1b,8,8,1,
{8}1b-3[8:1],8-4[8:1],1-5[8:1],8-6[8:1],1^3[8:1],8q4[8:1],1p5[8:1],8^6[8:1],
{4}1b,1,1v6[8:1]*q5[8:1],1b,
{8}1bqq7[8:1]*^3[8:1]/8,2,1,,
2V41[8:1]/6,1-5[8:1],2,7,
{8}7-3[8:1],2V46[8:1],7,2V86[8:1],,,,,
{8}1/2V46[8:1],3,2/8,7,
6v8[8:1],5,3v1[8:1]/6,2,
{4}3/7^4[4:1],3,2,1/7b,
{8}5b^7[8:1]*qq3[8:1]/4,6,5,,
7pp1[8:1]/3,1-5[8:1],7,3,
{8}2-6[8:1],7-4[8:1],2,7V14[4:1],,,,,
{8}3-1[8:1],8,7V53[8:1],6,
{8}7,1,5<4[2:1]*p4[2:1],4,{4},,,{8}3b,5,
(140){4}4b-1[1:1],6,6h[4:1],,7,7,8h[8:1],1,
{4}1pp4[4:3],1,8,7,6h[4:1],2-4[8:1],2/7,8b/1b,
(145)
{16}3b,7,3,6,3,5,3,4,3,2,3,1,3,8,3,7,
{16}3,2,1,8,7,6,5,4,1,2,3,4,1,8,7,6,
{16}4,3,2,1,6,7,8,1,5,4,3,2,4,5,6,7,
{16}3,2,1,8,7,6,2,1,8,7,6,5,
{32}3,2,1,8,7,6,5,4,
{8}3b,5<1[8:1],3,5,
{8}3-7[8:1],8v5[8:1]/2,3,8,
2^5[8:1],8^5[8:1],2b,8,4-7[8:1]*-1[8:1],3/5,4b,,
{8}2-6[8:1],4<8[8:1],2,4V28[4:1],4,5,6,7,
{8}3,3,7,{16}4,5,3b,6,2,1,3b,,7,,
{8}1bqq7[8:1]*V35[8:1],8/2,1,,
2V41[8:1]/6,7-3[8:1]/3,2,7,
{8}1pp3[8:1],1,5pp7[8:1],5,4-8[8:1],3,4b,7,
{8}1/2V46[8:1],3,2/8,7,{8}8/7V53[8:1],6,7/1,2,
{1}1pp4[2:1]/8qq5[2:1],
{16}3b,4,3,6,5,6,3,4,3,6,5,6,4,5,4,5,
{16}3b,4,2,6,5,7,3,4,2,6,5,7,3,6,3,6,
{16}2b,1,2,7,8,7,2,1,2,7,8,7,1,8,1,8,
{16}2b,1,3,7,8,6,2,1,3,7,8,6,2,7,2,7,
{16}3b,4,2,7,8,6,2,1,3,6,5,7,4,5,3,6,
{16}2b,1,3,6,5,7,3,4,2,7,8,6,1,8,2,7,
{16}4b,5,3,7,8,6,1,8,2,6,5,7,4,5,3,7,
{16}3b,4,2,5,4,6,2,1,3,7,8,6,4,5,3,6,
{16}2,1,3,8,4,7,5,6,
4,5,3,4,2,5,1,6,
2,3,4,5,6,7,8,1,
5,4,3,2h,{12}1h,8h,7h,
{8}6h/4h,,,5bs1[8:3]*z1[8:3],,,,,,
{8}1bqq7[8:1]*V35[8:1]/8,2,1,,
{16}5<1[8:1],4,3,,{8}2V46[4:1],3,
{8}6V82[4:1],7,8,6pp6[8:1],6,5,4,3,
2V41[8:1]/6,1-5[8:1],2,8,
{16}7,6,{8}5/2pp5[4:1],3,2,1V75[8:1],,1/3qq1[8:1],,3/7v5[8:1],,7/1b,,
{8}4b^7[8:1]*qq2[8:1]/5,3,4,,
{16}7pp1[8:1],2,1p5[8:1],,{8}7,3,
{8}2^5[8:1],7p3[8:1],2,7V14[4:1],,,6,,
{8}3qq3[8:1],8,7V53[8:1],6,
{8}7/2-4[8:1],1,{8}5p8[4:1]*q2[4:1]/2,5,,,,,
{16}2,7,2,7,
{32}1,2,3,4,5,6,7,8,
{8}1bV35[8:1]/5b,7pp7[8:1],1,7,
{16}5pp7[8:1],4,3>7[8:1],,{8}5,3,
{8}5-8[8:1],4,3V17[8:1],3,5v2[8:1]*v8[8:1],,
{8}5,,
{8}2^5[8:1],3,2-7[8:1]/6-3[8:1],7,2/6,,
{8}1v4[8:1]*v6[8:1],2/8,
{4}1^4[4:1],4qq5[4:1],6b,6b,
{8}1bqq7[8:1]*V35[8:1]/8,2,1,,
{16}5<1[8:1],4,3,,{8}2pp4[8:1],3,
{8}6,7qq7[4:1],4V28[8:1],3,,,
{16}1<5[8:3]/5,2/6,
{8}3h[4:1]/7,1b,,,2,,,8/4,
{32}8/4,3/7,2/6,1/5,
{8}8b>4[8:3]/4,,,6,,5,4b,3,
{16}7b/4b,,,6,5,,6,,
5/4,,,3,4,,3,,
5/2,,,4,5,,4,,
3b,2,1,8,7b,6,5,4,
{24}3h/5w1[8:1],2h,1h,8h,7h,6h,
{4}5b,,,,E
