&title=MANTIS (Arcaea Ultra-Bloodrush VIP)
&artist=Akira Complex feat. kiraku
&first=0
&des=谁呢
&lv_5=13+
&des_5=谁呢
&inote_5=(135){4},,,,{1}5/4>5<3[8:25],
,,{4},,{12}E6,
E7,E8,2,3,4,
{4}7h[8:1]/5-1[8:1],7h[8:1],8h[8:1]/6-3[8:1],8h[8:1],
1h[8:1]/2>5[8:1],1h[8:1],{16}7,5,6,6,{4}4,
2h[8:1]/4-8[8:1],2h[8:1],1h[8:1]/3-6[8:1],1h[8:1],
8h[8:1]/7<4[8:1],8h[8:1],{16}2,4,3,3,{4}5xh[4:1],
4>1[8:1],7<4[8:1],2q6[8:1],{8}4<7[8:1],4,
{4}1>4[8:1],8q4[8:1],7q3[8:1],6,
{16}7,5,6,4,6,5,7,4,5,2,4,3,6,6,5,7,
{4}4-8[8:1],1-5[8:1]/4-7[8:1],,C,
4h[4:1]/1>4[8:1],{48}D5,A5,D6,A6,D7,A7,,,,,,,{16}7,5,,5,6,6,5,7,
2,4,,4,3,3,4,2,7,5,,5,6,6,4,7,
{4}5h[4:1]/8<5[8:1],{48}D5,A4,D4,A3,D3,A2,,,,,,,{16}2,4,,4,3,3,4,2,
7,5,,5,6,6,5,7,2,4,,4,3,3,5,2,
{8}4/3,{16}6,5,,4,{8}5,{16}6,5,6,5,{8}4/7h[8:1],2,
{16}3,4,3,4,{8}2h[8:1],1,{16}4,7,5,6,4,5,3,4,
{2}2-4-1[8:1]/5-8-6[8:1],{16}3,4,4,5,4,4,3,4,
4,5,4,4,2,5,4,6,3,4,2,5,1,6,,6,
{4}4h[4:1]/7<4[8:1],{48}D4,A3,D3,A2,D2,A1,,,,,,,{16}2,4h[8:1],,3,,2/1,{8}2/1,
{16}7,5h[8:1],,6,,2/4,{8}2/4,{16}2,4h[8:1],,3,,6/5,{8}5/6,
{2}7qq6[8:1]/4qq3[8:1],{16}7,5h[8:1],,6,,4,5,3,
4<7[8:1],2,,2,4,1,2,3,{4}8/4h[4:1],{12}7,7,7,
{8}5q3[8:1]/6-2[8:1],5/6,{16},,,,7,5h[8:1],,6,,7/8,{8}7/8,
{16}2,4h[8:1],,3,,1/8,{8}8/1,{16}7,5h[8:1],,6,,3/4,{8}4/3,
{2}2bV83[8:1]`6b-1-7b[8:1],{16}6,5,5,4,5,5,6,5,
5,4,5,5,7,4,5,3,6,5,7,4,8,3,7,2,
{1}6xh[1:4],
,,,Ch[2:7],
,,{4},,,{12}6x,
6x,6x,
{4}2h[8:1]/4-8[8:1],4/2h[8:1],1h[8:1]/3-6[8:1],3/1h[8:1],
8h[8:1]/7<4[8:1],7/8h[8:1],{16}2,4,3,3,{8}5,6,
{4}7h[8:1]/5-1[8:1],5/7h[8:1],8h[8:1]/6-3[8:1],6/8h[8:1],
1h[8:1]/2>5[8:1],2/1h[8:1],{16}7,5,6,6,{4}4xh[4:1],
{8}5<8[8:1],5,2>5[8:1],2,7p3[8:1],7,5>2[8:1],5,
8<5[8:1],8,{4}1p5[8:1],2p6[8:1],3,
{16}2,4,3,5,3,4,2,5,4,7,5,6,3,3,4,2,
{4}5v8[8:1],1-6-4[8:1]/5-2-8[8:1],,C,
5h[4:1]/8<5[8:1],{48}D5,A4,D4,A3,D3,A2,,,,,,,{8}2/4,{16}1/8<5[8:1],8/1,,,{8}2h[8:1],
{16},3h[8:1],,5,{8}4h[8:1],{16}6,5,{12}7,7,7,7,{24},{8}6/5,
{4}4h[4:1]/1>4[8:1],{48}D5,A5,D6,A6,D7,A7,,,,,,,{8}7h[8:1],{16}5,6h[8:1],,4,{8}5h[8:1],
{16}2,4h[8:1],,1,{12}7,7,7,{8}6/5,{24}4,5,3,{4}4h[4:1],
{8}C,{16}E7,E6,,E3,{8}E4,{12}5h/7h,5h/7h,{24}5h/7h,,,,,4h/3h,,4h/3h,
,4h/3h,,,,,{12}7h/8h,7h/8h,7h/8h,{24},,,4h/2h,,4h/2h,,4h/2h,,,1,6,
{2}2-8-4[8:1]/5-7-4[8:1],{16}3,4,4,5,4,4,2,4,
4,6,4,4,2,4,4,6,2,4,1,6,5,7,,5,
{4}4h[4:1]/1>4[8:1],{48}D5,A5,D6,A6,D7,A7,,,,,,,{8}7/5,{16}8/1>4[8:1],1/8,,,{8}7h[8:1],
{16},6h[8:1],,4,{8}5h[8:1],{16}3,4,{12}2,2,2,2,{24},{8}3/4,
{2}5qq3[8:1]/7>2[8:1],{8}2h[8:1],{16}4,3h[8:1],,5,{8}4h[8:1],
{16}7,5h[8:1],,8,{12}2,2,2,{8}3/4,{24}5,4,6,{4}5,
{32}8,7,{16}6,{32}2,3,{16}4,{4}C,{12}4h/2h,4h/2h,{24}4h/2h,,,,,5h/6h,,5h/6h,
,5h/6h,,,,,{12}2h/1h,2h/1h,2h/1h,{24},,,5h/7h,,5h/7h,,5h/7h,,,8,3,
{2}7-1-5[8:1]/4-2-5[8:1],{16}6,5,5,4,5,5,7,5,
5,3,5,5,7,5,5,3,7,5,8,3,4,2,2,5,
{4}4h[8:1],4h[8:1]/7>2[8:1],4h[8:1]/7-5[8:1],7/4h[8:1],
2-5[8:1]/4-7[8:1],2/4,{16}4,6,3,5,{8}2h[8:1],4,
{4}5h[8:1],5h[8:1]/2<7[8:1],5h[8:1]/2-4[8:1],2/5h[8:1],
7-4[8:1]/5-2[8:1],7/5,{16}5,3,6,4,{4}7h[8:1],
{16}5,6,5,6h[8:1],,5,{8}5,{16}3,4,3,4h[8:1],,3,{8}3,
{16}7,5,7,5h[8:1],,6,{8}6,{16}2,4,2,4h[8:1],,3,{8}3,
{16}7,5,6,4,5,2,4,3,5,4,6,6,5,7,7,8,
{4}6-3[8:1],2-4<5[8:1]/6-8>1[8:1],,C,
4bh[4:1]/1>4b[8:1],{48}D5,A5,D6,A6,D7,A7,,,,,,,{16}6-8[8:1],5,,5,{8}6,1h[8:1],
{16}7<4[8:1],8,,8,{8}7,3h[8:1],{16}1-5[8:1],2,,2,{8}1<3b[4:1],3,
{2}7bh[4:1],{16}3-1[8:1],4,,4,{8}3,8h[8:1],
{16}2>5[8:1],1,,1,{8}2,6h[8:1],{16}8-4[8:1],7,,7,{8}8,6,
2h[8:1],{16}E7,E6,,E3,{8}E4,{16}6<1[8:1],4,5,3,{8}3,2h[8:1],
{16}6<1[8:1],4,5,3,{8}3,2h[8:1],{16}3>8[8:1],5,4,6,{8}6,7,
{36}4bx/7bx,3/6,5/2,1h[12:5],{4},{16},,{72},{16}7,8,8,1,8,8,6,8,
8,2,8,8,5,8,8,3,8,8,4,8,8,4,8,8,
{4}1bx>4b[8:1],{48}D5,A5,D6,A6,D7,A7,,,,,,,{16}7/5,5h[8:1],,6,,5/6,{8}6/5,
{16}3,4h[8:1],,3,,5/2,{8}5/2,{16}7,5h[8:1],,6,,8/1,{8}8/1,
{16}2,2,{8}2,{4}3/5,{16}2/4,4h[8:1],,3,,4/3,{8}3/4,
{16}6,5h[8:1],,6,,4/7,{8}4/7,{16}2,4h[8:1],,3,,1/8,{8}1/8,
7,7,{4}6/4,{16}7,5h[8:1],,6,,7/8,{8}7/8,
{16}2,4h[8:1],,3,,1/8,{8}8/1,{16}7,5h[8:1],,6,,3/4,{8}4/3,
{36}5bx/2bx,6/3,4/7,8h[12:5],{4},{16},,{72},{16}2,1,1,8,1,1,3,1,
1,7,1,1,4,1,1,6,1,1,5,1,1,5,1,1,
{1}5bw1[1:1],
E
&lv_6=14
&des_6=复制粘贴大王
&inote_6=(135)
{1},3-1v8-6[4:12]/6,,,
{4},,
{12}3,3,3,4x-1[8:1],5x,6x,
{4}4bxV62[4:1],2,3>7[4:1],7>3[4:1],5,6<2[4:1],2<6[4:1],4-1[8:1],4V63[4:1],2,
{4}1V35[4:1],5V31[4:1],8,6V82[4:1],2,A4h[8:2]/E4/E5,
{8}6,6,2/4,2,3/8,8,1/7,1,2/6,6,3/4,3,7/5,7,1/6,1,
{8}2/4,2/4,3,3,5/7,5/7,6,6,
{16}2,4,3,4,1,6,5,7h[16:5],
{4},3-8b[8:1],
{32}A3f/7xw3[8:1],6x,,,,,,,
{4},
{16}2,4,,4,3,,6,5,7,1,,1,8,,2,4,3,6,,6,5-1b[8:1],,7,,
{16}A5f/8w4[8:1],,,,
{4},
{16}6,5,,5,7,,1,8,2,4,,4,3,,7,5,6,3,,3,4-8b[8:1],,2z6[4:1],,
{4}1b,,
{16}3x-1[8:1]/5x,,2,4,3b,,,,4x/6x-8[8:1],,7,5,6b,,,,1-5[8:1]/2,,3,4,1b,,,,
{48}A8,D8,A7,D7,A6,D6,A5,D5,A4,D4,A3,D3,A2,D2,A1,D1,A8,D8,A7,,,,,,
{16}3bx,4,2,4bx,3,5,3bx,4,2,4bx,3,5,3bx,4,2,4bx,3,5,3b,,2/4,2-6b[8:1]/4,,8,8w4[8:1]/A2f,,,,
{4},
{16}6-1[8:1],5,,5,6,,3,3,4-8[8:1],2,,2,4,,3,3,7-4[8:1],5,,5,7>2b[8:1],,1,,3-8[8:1],,,,
{4},
{16}7-4[8:1],8,,8,7,,1,1,5-8[8:1],3,,3,5,,4,4,7,5,,8,
{12}1x-5[8:1]/7x,1x/7x,1x/7x-3[8:1],
{16}1bx,,7bx,,
{4}1b,
{16}6x-8[8:1],5,7,4,6b,,,,3x-1[8:1],4,2,5,3b,,,,8x-4[8:1],1,7,2,8b,,,,
{48}A1,D2,A2,D3,A3,D4,A4,D5,A5,D6,A6,D7,A7,D8,A8,D1,A1,D2,A2,,,,,,
{16}6bx,5,7,5bx,6,4,6bx,5,7,5bx,6,4,6bx,5,7,5bx,6,4,6b,,7/5,7-3b[8:1]/5,,1,
{1}1>8[4:14]*<1[4:14]/A7f,,,,
{16}6h[16:11],,,5,,5,,,4,,,3,,,,,3h[16:11],,,4,,4,,,5,,,7,,,,,7h[16:11],,,6,,6,,,4,,,2,,,,,2h[16:8],,,4,,4,,,
{12}6,6,6,5x-8[8:1],4x,3x,
{4}5bxV37[4:1],7,6<2[4:1],2<6[4:1],4,3>7[4:1],7>3[4:1],5-8[8:1],5V36[4:1],7,
{4}8V64[4:1],4V68[4:1],1,3V17[4:1],7,A5h[8:2]/E6/E5,
{8}3,3,7/5,7,6/1,1,8/2,8,7/3,3,6/5,6,2/4,2,8/3,8,
{8}7/5,7/5,6,6,4/2,4/2,3,3,
{16}7,5,6,4,8,3,5,2,
{4}7-3[8:1],4<7b[8:1],
{32}8b-4[8:1]/A5f,1,2,,,,,,
{4},
{16}2/4,,3,8,5,,5/7,,6,1,4,,2/4,,3,8,
{12}5xqq4[16:3]*pp6[16:3],4x/6x,3x/7x,5xw1[8:1],,,
{4}B5f,3/7,
{16}2/5,,3,4h[8:1],,6,5h[8:1],,2,4h[8:1],,8,5/1,6,7,,3-8[8:1],,
{32}1,8,7,6,
{4}3x/5-1[8:1],2bz6b[8:1],,
{12}5/6,4/5,4/3,2x/4x,
{24},
{12}2/4,3/5,4/6,4x/7x,
{24},
{12}4/7,3/6,2/5,1x/5x,
{24},
{12}1/5,2/6,3/7,4x/8x,
{24},
{48}A8,D8,A7,D7,A6,D6,A5,D5,A4,D4,A3,D3,A2,D2,A1,D1,A8,D8,A7,,,,,,
{16}3bx,4,1,4bx,3,6,3bx,4,1,4bx,3,6,3bx,4,1,4bx,3,6,3b,,2q6b[8:1]/4,2/4,,8,
{4}8-3[8:1]*-5[8:1]/A2f,,
{16}1/4,,
{32}2h[16:1],4,5,6,3b/7,,,,
{16}8/5,,
{32}7h[16:1],5,4,3,6b/2,,,,
{32}3,4,3,,6,,2,,
{12}8x-4[8:1],1x/7x,2x/6x,8xV25b[8:1],,,
{4}6-1[12:1],,
{16}7/5,,3,2h[8:1]/4,,,3/4,,6,7h[8:1]/5,,,1,8,2,,3-8[8:1]/7,,
{32}1,8,7,6,
{4}3x/5,
{8}1-3[8:1]/4-8[8:1],1/4,1/4,,
{12}4/3,5/4,5/6,7x/5x,
{24},
{12}7/5,6/4,5/3,5x/2x,
{24},
{12}5/2,6/3,7/4,8x/4x,
{24},
{12}8/4,7/3,6/2,5x/1x,
{24},
{48}A1,D2,A2,D3,A3,D4,A4,D5,A5,D6,A6,D7,A7,D8,A8,D1,A1,D2,A2,,,,,,
{16}6bx,5,8,5bx,6,3,6bx,5,8,5bx,6,3,6bx,5,8,5bx,6,3,6b,,7/5,7/5,,2/4,
{4}2/4bxV62[4:1],3,3>7[4:1],7>3[4:1],5,6<2[4:1],2<6[4:1],4-1[8:1],4V63[4:1],2,
{4}1V35[4:1],5V31[4:1],8,6V82[4:1],2,A4h[8:2]/E4/E5,
{8}6x,6,2/4,2,3x/8x,8,1/7,1,2x/6x,6,3/4,3,7x/5x,7,1/6,1,
{8}2x/4x,3/5,4x/6x,5/7,2x/5x,3/6,4x/7x,5/8,
{16}2,4,3,5,4,6,5,7,
{4}1-5[8:1],5>2b[8:1],
{32}8b/A4f,7,6,,,,,,
{4}1/5,
{16}2-5[8:1],4,3,5,2b,,,,
{16}7-4[8:1],5,6,4,7b,,,,
{16}1-5[8:1],8,2,7,1b-4b[8:1],,,,
{4}3w7[8:1]/A1f,,
{16}1-5[8:1],5,3,4,1b,,,,
{16}8-4[8:1],4,6,5,8b,,,,
{16}1-5[8:1],5,3,7,1b-6b[8:1],,,,
{4}4z8[8:1],,
{16}3-8[8:1],4,,4,3,,6,6,5-1[8:1],7,,7,5,,6,6,2-5[8:1],4,,4,2,,8,,
{48}A8,D8,A7,D7,A6,D6,A5,D5,A4,D4,A3,D3,A2,D2,A1,D1,A8,D8,A7,,,,,,
{16}2bx,4,3,6bx,3,4,8bx,4,3,6bx,3,4,2bx,4,3,6bx,3,4,1bx,,2/8-5b[8:1],2/8,,4,
{4}4w8[8:1]/A8f,,
{16}4-1[8:1],2,5,3,6b,,,,
{16}5-8[8:1],7,4,6,3b,,,,
{16}1-5[8:1],7,2,8,3b,,,,
{16}4x-2[8:1]/6xv4[8:1],4x/6x,4x/6x,,
{4},
{16}2<7[8:1],4,3,5,2b,,,,
{16}7>2[8:1],5,6,4,7b,,,,
{16}1p5[8:1],4,3,5,1,,,,
{8}3-8[8:1]/7-4[8:1],3/7,3/7,,
{16}7-4[8:1],8,,8,7,,1,1,5-8[8:1],3,,3,5,,4,4,7-3b[8:1],5,,5,7,,,,
{48}A1,D2,A2,D3,A3,D4,A4,D5,A5,D6,A6,D7,A7,D8,A8,D1,A1,D2,A2,,,,,,
{16}7bx,5,6,3bx,6,5,1bx,5,6,3bx,6,5,7bx,5,6,3bx,6,5,8bx,,7/1,7/1,,2/6,B6/Cf/B2,
