&title=Aleph-0
&artist=LeaF
&first=0.085
&wholebpm=125.000
&lv_6=15
&des_6=21rc0
&inote_6=(125)
{16}1v7-4[8:25]*V36[2:3],,,,
,,,,
,,,,
,,,,
{16},,,,
,,,,
,,,,
,,,,
{16},,,,
,,,,
,,,,
8z4[8:1],,,,
{16}8b,,,,
{32}1>7[1:2],,8,,5b,6,5,,
{16},,,,
,,,,
{16},,,,
1,,2,2,
8,,3,3,
6,6,1,,
{16}2h[16:1],,8h[16:1],,
5h[16:1],,4h[16:1],,
3V14[4:1],,5,4,
6,,7,,
{16}7-5[8:1],,5,5,
,4,4,,
3V52[4:1],5,2,6,
6,,7,,
{16}8V25[8:1]*q6[8:1],,,,
8b,,,,
3V52[4:1],,5,4,
6,,7,,
{16}7-5[8:1],,5,5,
,4,4,,
3V52[4:1],2,5,6,
4-7b[16:1],,1,,
{16}4b,,,,
8b,,,,
2V41[4:1],,8,1,
7,,6,,
{16}6-8[8:1],,8,8,
,1,1,,
2V83[4:1],8,3,7,
7,,6,,
{16}5V38[8:1]*p7[8:1],,,,
5b,,,,
2V83[4:1],,8,1,
7,,6,,
{16}6-8[8:1],,8,8,
,1,1,,
2V83[4:1],3,8,7,
6<5[4:1],,5,,
{16}6-2b[16:1],,,,
6b,,7,,
(70)
{16}7bpp4b[16:27]/3bq5b[16:5],,,,
,,,,
,,6>3b[48:5],,
2qq1b[8:1],2,,,
{16},,,2,
2<7b[16:1],,3p6b[16:1],,
,,,,
7<5b[16:1],7,,,
{16}3bpp8b[8:15]/7bpp6b[16:5],,,,
,,,,
,,3q1b[48:5],,
2,2,3pp4b[48:5],,
{16}2<7b[48:5],,3p6b[48:5],,
,,,,
,5,5,4,
{32}2,2,6,6,1,1,7,7,
{16}2-6b[0.8486##0.0886],,,,
(125)
{16}8bz4[16:1],,,,
{48},,,,,,,,E6,B5,B4,E4,
{16}Ch[16:1],,,,
Ch[16:3]/5<5[0.4704##3.4848]*s1[8:13],,,,
{16},,,,
,,,,
,,,,
,,,,
{16},,,,
,,,,
,,,,
,8b,,6/5,
{16}6,
(125.5)
{16}4,5,
(126)
{16}3/4,,
(126.5)
{16}2,,
(127)
{16}6/5,6,
(127.5)
{16}4,5,
(128)
{16}3/4,,
(128.5)
{16}2,,
(129)
{16}6/5,6,
(129.5)
{16}4,5,
(130)
{16}3/4,,
(130.5)
{16}2,,
(131)
{48}2b/1b,3,,,,,
(131.5)
{48}8b/1b,7,,,,,
(132)
{48}2b/1b,3,,,,,
(132.5)
{48}7b/8b,6,,,,,
(133)
{16}6b/5b,6,
(133.5)
{16}4,5,
(134)
{16}3/4,,
(134.5)
{16}2,,
(135)
{16}6/5,6,
(135.5)
{16}4,5,
(136)
{16}3/4,,
(136.5)
{16}2,,
(137)
{16}6/5,6,
(137.5)
{16}4,5,
(138)
{16}3/4,,
(138.5)
{16}2,,
(139)
{48}2b/1b,3,,,,,
(139.5)
{48}8b/1b,7,,,,,
(140)
{48}2b/1b,3,,,,,
(140.5)
{48}7b/8b,6,,,,,
(141)
{16}7b/5b,7,
(141.5)
{16}3,4,
(142)
{16}2/5,,
(142.5)
{16}7/1,,
(143)
{16}7/5,7,
(143.5)
{16}3,4,
(144)
{16}5/2,,
(144.5)
{16}1/7,,
(145)
{16}7/5,7,
(145.5)
{16}4,5,
(146)
{16}3/5,,
(146.5)
{16}2/8,,
(147)
{48}2b/1b,3,,,,,
(147.5)
{48}7b/8b,6,,,,,
(148)
{48}2b/1b,3,,,,,
(148.5)
{48}7b/8b,6,,,,,
(149)
{16}7b/5b,7,
(149.5)
{16}3,4,
(150)
{16}2/4,,
(150.5)
{16}8/2,,
(151)
{16}7/5,7,
(151.5)
{16}3,4,
(152)
{16}2/4,,
(152.5)
{16}8/2,,
(153)
{16}7/5,7,
(153.5)
{16}3,4,
(154)
{16}2/4,,
(154.5)
{16}7/1,,
(155)
{48}2b/1b,3,,,,,
(155.5)
{48}7b/8b,6,,,,,
(156)
{48}2b/1b,3,,,,,
(156.5)
{48}7b/8b,6,,,,,
(157)
{16}7b/5b,7,
(157.5)
{16}4,5,
(158)
{16}3,4,
(158.5)
{16}2,8,
(159)
{16}7/5,7,
(159.5)
{16}4,5,
(160)
{16}3,4,
(160.5)
{16}2,8,
(161)
{16}7/5,7,
(161.5)
{16}4,5,
(162)
{16}3,4,
(162.5)
{16}2,8,
(163)
{48}2b/1b,3,,,,,
(163.5)
{48}8b/1b,7,,,,,
(164)
{48}2b/1b,3,,,,,
(164.5)
{48}7b/8b,6,,,,,
(165)
{16}7b/5b,7,
(165.5)
{16}4,5,
(166)
{16}3,4,
(166.5)
{16}2,8,
(167)
{16}7/5,7,
(167.5)
{16}4,5,
(168)
{16}3,4,
(168.5)
{16}2,8,
(169)
{16}7/5,7,
(169.5)
{16}4,5,
(170)
{16}3,4,
(170.5)
{16}2,8,
(171)
{48}2b/1b,3,,,,,
(171.5)
{48}7b/8b,6,,,,,
(172)
{48}2b/1b,3,,,,,
(172.5)
{48}7b/8b,6,,,,,
(173)
{16}5b,7,
(173.5)
{16}4,5,
(174)
{16}2,4,
(174.5)
{16}2,8,
(175)
{16}5,6,
(175.5)
{16}3,5,
(176)
{16}2,3,
(176.5)
{16}1,8,
(177)
{16}5,7,
(177.5)
{16}4,5,
(178)
{16}3,4,
(178.5)
{16}2,8,
(179)
{48}2b/1b,3,4,,,,
(179.5)
{48}7b/8b,6,5,,,,
(180)
{48}2b/1b,3,4,,,,
(180.5)
{48}7b/8b,6,5,,,,
(181)
{16}4b,7,
(181.5)
{16}4,5,
(182)
{16}2,4,
(182.5)
{16}1,8,
(183)
{16}5,7,
(183.5)
{16}4,6,
(184)
{16}3,4,
(184.5)
{16}2,8,
(185)
{16}5,6,
(185.5)
{16}3,5,
(186)
{16}2,4,
(186.5)
{16}1,8,
(187)
{48}2b/1b,3,4,,,,
(187.5)
{48}7b/8b,6,5,,,,
(188)
{48}2b/1b,3,,4,,,
(188.5)
{48}7b/8b,6,5,,,,
(189)
{16}4/6,4,
(189.5)
{16}2,7,
(190)
{16}8,,
(190.5)
{16}6/4,4,
(191)
{16}7,1,
(191.5)
{16}5,,
(192)
{16}3/7,3,
(192.5)
{16}5,2,
(193)
{16}8,,
(193.5)
{16}1/7,7,
(194)
{16}4,8,
(194.5)
{16}2,,
(195)
{16}6/4,4,
(195.5)
{16}8,2,
(196)
{16}5,,
(196.5)
{16}3/7,7,
(197)
{16}1,6,
(197.5)
{16}4,,
(198)
{16}7,7,
(198.5)
{16}4,4,
(199)
{24}6-2b[0.3011##0.15],5,6,
(199.5)
{24}5,6,5<5[0.3001##4.95],
(200)
{32}6b,Cf,,,,,,,
{16},,,,
,,,,
,,,,
{16},,,,
,,,,
,,,,
,,,,
{16}7h,7,7,7,
7,7,7,7,
8h,8,8,8,
8,8,8,8,
{16}1h,1,1,1,
1,1,1,1,
2h,2,2,2,
2,2,2,2,
(125)
{16}3bqq4b[8:5],,,,
,,,,
,,,,
,,7h[8:1],,
{16}5,4,6bx-2b[0.48##1.32]`3bx-7[0.48##0.12],8,
1,2,3b/6-2[62.5#32:1],,
,,,,
,,6xh,,
{16}5,6,1bx-5b[8:3]`7bx-3[16:1],2,
3,4,7b,,
,,1xh,6,
6,4,8/3,2/7,
{16}6,5,6bx-2[16:1]`4bx-8b[8:5],7,
8/2,3,6b/4-8[62.5#32:1],,
,,,,
,,4xh,,
{16}7,6,3bx-7b[8:3]`5bx-1[16:1],2,
1,8,5b,,
,,3xh,5,
4,3,8/4,5/1,
{16}2bq4[8:5]/6bq8[8:5],,,,
,,,,
,,,,
,,,,
{16}4b>3-7>8[0.24##1.56]/6b>5z1>2[0.24##1.56],,,,
,,,,
,,,,
,,,,
{16}Cf/1b-5b[0.48##14.88],,,,
,,,,
,,,,
,,,,
{16}Ch[4:1],,,,
,,,,
,,,,
,,,,
{16}Ch[4:1],,,,
,,,,
,,,,
,,,,
{16}Ch[4:1],,,,
,,,,
,,,,
,,,,
{16}Ch[4:1],,,,
,,,,
,,,,
,,,,
{16}Ch[4:1],,,,
,,,,
,,,,
,,,,
{16}Ch[4:1],,,,
,,,,
,,,,
,,,,
{16}Ch[4:1],,,,
,,,,
,,,,
,,,,
(250)
{32}7b,6,,,7b,6,,,
2b,3,,,2b,3,,,
6b,5,,,6b,5,,,
2b,3,,,2b,3,,,
{32}6b,7,,,6b,7,,,
5b,4,,,5b,4,,,
6b,7,,,6b,7,,,
2b-6[0.24##0.96],3,,,2b,3,,,
(125)
{16},,,,
,,,,
(250)
{32}2b,3,,,2b,3,,,
7b,8,,,7b,8,,,
3b,4,,,3b,4,,,
5b,6,,,5b,6,,,
{32}2b,3,,,7b,8,,,
2b,3,,,5b,6,,,
3b,4,,,7b,8,,,
5b,6,,,5b,6,,,
{32}4b,3,,,4b,3,,,
1b,8,,,1b,8,,,
6b,7,,,6b,7,,,
1b,8,,,1b,8,,,
{32}3b,2,,,3b,2,,,
4b,5,,,4b,5,,,
6b,7,,,6b,7,,,
8b-4[0.24##0.96],1,,,8b,1,,,
(125)
{16},,,,
,,,,
(250)
{32}8b,7,,,8b,7,,,
3b,4,,,3b,4,,,
8b,7,,,1b,2,,,
6b,5,,,2b,3,,,
{32}7b,6,,,1b,8,,,
3b,2,,,5b,4,,,
8b,7,,,2b,3,,,
6b-2[0.24##1.02],5,,,3b,4,,,
(125)
{16},,,,
,,,,
(250)
{32}6b,7,,,6b,7,,,
3b,4,,,3b,4,,,
6b,7,,,8b,1,,,
3b,4,,,6b,7,,,
{32}3b,2,,,4b,5,,,
3b,2,,,7b,6,,,
1b,2,,,4b,5,,,
7b,8,,,3b,4,,,
{32}6b,7,,,2b,1,,,
4b,3,,,7b,6,,,
3b,4,,,2b,1,,,
6b,7,,,4b,3,,,
{32}8b,1,,,5b,6,,,
3b,2,,,6b,7,,,
4b,5,,,8b,1,,,
4b>3-7>8[0.24##8.52],3,,,6b,5,,,
(125)
{16},,,,
,,,,
2b<1z5<6b[16:59],,,,
,,,,
{16},,,,
,,,,
,,,,
,,,,
{16},,,,
,,,,
,,,,
,,,,
{16},,,,
,,,,
,,,,
,,,,
{16},,,,
,,,,
D2/D8/A7/E7/E6/E5/B4/D3/D1/B8/B5/A6/A1/A5/B7/A8/A2/B6/E2/E3/D6/A3/E4/D4/D5/A4/D7/E1/B2/E8/B1/B3/Chf[32:1],
